<?xml version="1.0" standalone="no"?>
<!DOCTYPE svg PUBLIC "-//W3C//DTD SVG 1.1//EN" "http://www.w3.org/Graphics/SVG/1.1/DTD/svg11.dtd" >
<svg xmlns="http://www.w3.org/2000/svg">
<metadata>Generated by IcoMoon</metadata>
<defs>
<font id="icomoon" horiz-adv-x="1024">
<font-face units-per-em="1024" ascent="960" descent="-64" />
<missing-glyph horiz-adv-x="1024" />
<glyph unicode="&#x20;" horiz-adv-x="512" d="" />
<glyph unicode="&#xe034;" glyph-name="pause" d="M598 724.667h170v-596h-170v596zM256 128.667v596h170v-596h-170z" />
<glyph unicode="&#xe035;" glyph-name="pause-circle" d="M640 256.667v340h-86v-340h86zM470 256.667v340h-86v-340h86zM512 852.667c236 0 426-190 426-426s-190-426-426-426-426 190-426 426 190 426 426 426z" />
<glyph unicode="&#xe037;" glyph-name="play" d="M342 724.667l468-298-468-298v596z" />
<glyph unicode="&#xe038;" glyph-name="play-circle" d="M426 234.667l256 192-256 192v-384zM512 852.667c236 0 426-190 426-426s-190-426-426-426-426 190-426 426 190 426 426 426z" />
<glyph unicode="&#xe0e1;" glyph-name="mail, email" d="M512 468.667l342 214h-684zM854 170.667v426l-342-212-342 212v-426h684zM854 768.667c46 0 84-40 84-86v-512c0-46-38-86-84-86h-684c-46 0-84 40-84 86v512c0 46 38 86 84 86h684z" />
<glyph unicode="&#xe145;" glyph-name="add, plus" d="M810 384.667h-256v-256h-84v256h-256v84h256v256h84v-256h256v-84z" />
<glyph unicode="&#xe24d;" glyph-name="document" d="M554 554.667h236l-236 234v-234zM256 852.667h342l256-256v-512c0-46-40-84-86-84h-512c-46 0-86 38-86 84l2 684c0 46 38 84 84 84z" />
<glyph unicode="&#xe3c7;" glyph-name="hamburger, menu" d="M86 704.667h852v-86h-852v86zM86 490.667h852v-86h-852v86zM86 276.667h852v-84h-852v84z" />
<glyph unicode="&#xe413;" glyph-name="gallery" d="M86 682.667h84v-598h598v-84h-598c-46 0-84 38-84 84v598zM470 426.667l-128-170h512l-172 212-126-158zM938 256.667c0-46-38-86-84-86h-512c-46 0-86 40-86 86v512c0 46 40 84 86 84h512c46 0 84-38 84-84v-512z" />
<glyph unicode="&#xe5c5;" glyph-name="caret-down" d="M298 512.667h428l-214-214z" />
<glyph unicode="&#xe5c6;" glyph-name="caret-circle-down" d="M512 340.667l170 172h-340zM512 852.667c236 0 426-190 426-426s-190-426-426-426-426 190-426 426 190 426 426 426z" />
<glyph unicode="&#xe5c7;" glyph-name="caret-up" d="M298 340.667l214 214 214-214h-428z" />
<glyph unicode="&#xe7ff;" glyph-name="user-o" d="M512 384.667c114 0 342-58 342-172v-128h-684v128c0 114 228 172 342 172zM512 768.667c94 0 170-78 170-172s-76-170-170-170-170 76-170 170 76 172 170 172zM512 302.667c-126 0-260-62-260-90v-46h520v46c0 28-134 90-260 90zM512 686.667c-50 0-90-40-90-90s40-88 90-88 90 38 90 88-40 90-90 90z" />
<glyph unicode="&#xe876;" glyph-name="check" d="M384 246.667l452 454 60-60-512-512-238 238 58 60z" />
<glyph unicode="&#xe8ad;" glyph-name="print" d="M768 810.667v-170h-512v170h512zM810 426.667c24 0 44 18 44 42s-20 44-44 44-42-20-42-44 18-42 42-42zM682 128.667v212h-340v-212h340zM810 596.667c70 0 128-58 128-128v-256h-170v-170h-512v170h-170v256c0 70 58 128 128 128h596z" />
<glyph unicode="&#xe8b5;" glyph-name="location, pin" d="M512 448.667c58 0 106 48 106 106s-48 106-106 106-106-48-106-106 48-106 106-106zM512 852.667c166 0 298-132 298-298 0-224-298-554-298-554s-298 330-298 554c0 166 132 298 298 298z" />
<glyph unicode="&#xe900;" glyph-name="chevron-down-circle" d="M512-85.333c281.6 0 512 230.4 512 512s-230.4 512-512 512-512-230.4-512-512 230.4-512 512-512zM226.133 567.467c8.533 8.533 17.067 12.8 29.867 12.8s21.333-4.267 29.867-12.8l226.133-226.133 226.133 226.133c17.067 17.067 42.667 17.067 59.733 0s17.067-42.667 0-59.733l-256-256c-17.067-17.067-42.667-17.067-59.733 0l-256 256c-17.067 17.067-17.067 46.933 0 59.733z" />
<glyph unicode="&#xe901;" glyph-name="chevron-down" d="M798.123 584.79c-16.512 16.512-43.733 16.512-60.288 0l-225.877-225.877-225.877 225.877c-16.512 16.512-43.733 16.512-60.288 0s-16.512-43.733 0-60.288l256-256c8.277-8.277 19.2-12.544 30.123-12.544s21.888 4.267 30.123 12.544l256 256c16.811 16.512 16.811 43.733 0 60.288z" />
<glyph unicode="&#xe902;" glyph-name="chevron-left-circle" d="M0 426.667c0-281.6 230.4-512 512-512s512 230.4 512 512-230.4 512-512 512-512-230.4-512-512zM652.8 712.534c8.533-8.533 12.8-21.333 12.8-29.867s-4.267-21.333-12.8-29.867l-226.133-226.133 226.133-226.133c17.067-17.067 17.067-42.667 0-59.733s-42.667-17.067-59.733 0l-256 256c-17.067 17.067-17.067 42.667 0 59.733l256 256c17.067 17.067 46.933 17.067 59.733 0z" />
<glyph unicode="&#xe903;" glyph-name="chevron-left" d="M444.288 426.667l225.877 225.877c16.512 16.512 16.512 43.733 0 60.288s-43.733 16.512-60.288 0l-256-256c-16.512-16.512-16.512-43.733 0-60.288l256-256c8.277-8.277 19.2-12.544 30.123-12.544s21.888 4.267 30.123 12.544c16.512 16.512 16.512 43.733 0 60.288l-225.877 225.877z" />
<glyph unicode="&#xe904;" glyph-name="pinkberry-leaf" horiz-adv-x="1236" d="M394.43-77.748c37.926 295.822 242.726 659.911 841.956 584.059-15.17-242.726-159.289-652.326-841.956-584.059zM371.674 89.126c-295.822 15.17-477.867 326.163-303.407 849.541 189.63-159.289 584.059-485.452 303.407-849.541z" />
<glyph unicode="&#xe905;" glyph-name="facebook-f" horiz-adv-x="602" d="M548 931.81v-150.857h-89.714c-70.286 0-83.429-33.714-83.429-82.286v-108h167.429l-22.286-169.143h-145.143v-433.714h-174.857v433.714h-145.714v169.143h145.714v124.571c0 144.571 88.571 223.429 217.714 223.429 61.714 0 114.857-4.571 130.286-6.857z" />
<glyph unicode="&#xe906;" glyph-name="aoda-online" horiz-adv-x="4002" d="M973.574 302.427h9.18l-107.001 107.022c15.862 28.031 25.021 60.353 25.021 94.81 0 106.68-86.762 193.464-193.421 193.464-106.638 0-193.421-86.783-193.421-193.464 0-106.638 86.783-193.4 193.421-193.4 39.901 0 77.005 12.126 107.812 32.92l99.294-99.251c0.64 32.087 26.836 57.898 59.115 57.898zM707.332 370.402c-73.824 0-133.9 60.054-133.9 133.879 0 73.846 60.076 133.943 133.9 133.943 73.867 0 133.9-60.097 133.9-133.943 0-73.824-60.033-133.879-133.9-133.879zM1387.913 356.333h-80.485l-22.075 77.070h-111.655l-22.651-77.070h-80.464l120.685 435.752h77.646l118.999-435.752zM1265.499 509.896l-36.272 161.504-36.25-161.504h72.522zM1396.901 482.697v184.732c0 92.377 40.221 130.335 145.621 130.335s149.037-37.958 149.037-130.335v-184.732c0-90.092-45.324-130.314-149.037-130.314-103.692 0-145.621 40.221-145.621 130.314zM1613.358 486.668v176.812c0 39.666-10.205 65.157-70.836 65.157-56.66 0-67.441-25.491-67.441-65.157v-176.812c0-41.353 10.781-65.178 67.441-65.178 56.66-0.021 70.836 23.825 70.836 65.178zM1884.724 792.662c105.378 0 149.015-37.958 149.015-130.335v-177.922c0-90.092-45.345-128.072-149.015-128.072h-143.379v436.329h143.379zM1884.724 427.147c56.66 0 70.814 19.854 70.814 61.229v170.001c0 41.353-9.052 62.894-69.704 62.894h-66.865v-294.124h65.755zM2354.954 356.333h-80.464l-22.096 77.070h-111.633l-22.673-77.070h-80.485l120.707 435.774h77.625l119.020-435.774zM2232.54 509.896l-36.25 161.504-36.272-161.504h72.522zM2489.687 496.275v158.11c0 100.297 21.541 143.934 126.941 143.934s126.941-43.637 126.941-144.511v-156.957c0-98.611-23.249-144.511-126.941-144.511-103.713 0.021-126.941 45.921-126.941 143.934zM2518.017 652.677v-154.694c0-70.259 2.839-119.575 98.611-119.575s98.611 47.608 98.611 119.575v154.694c0 74.251-2.839 119.575-98.611 119.575s-98.611-43.616-98.611-119.575zM3014.934 356.888h-32.899l-151.278 371.172h-1.131l3.992-137.145v-234.027h-30.059v436.905h30.059l155.249-375.122h1.131l-5.124 155.804v219.317h30.059zM3277.206 356.333h-197.776v437.482h28.33v-411.457h169.446zM3316.231 793.793h30.038v-437.503h-30.038v437.503zM3622.204 356.888h-32.877l-151.278 371.172h-1.153l3.971-137.145v-234.027h-30.017v436.905h30.017l155.271-375.122h1.131l-5.102 155.804v219.317h30.038zM3884.496 793.793v-26.067h-169.425v-164.344h152.431v-26.643h-152.431v-192.652h180.74v-27.754h-209.091v437.46zM559.896 251.254h-244.488c-4.804 0-8.732-3.928-8.732-8.732v-52.497c0-4.825 3.928-8.753 8.732-8.753h244.488c4.825 0 8.753 3.95 8.753 8.753v52.497c0 4.804-3.928 8.732-8.753 8.732zM503.813 384.62h-433.788v484.044h735.299v-151.001c26.515-12.895 50.234-30.636 70.003-52.091v203.092c-0.021 38.513-31.511 70.003-70.003 70.003h-735.299c-38.513 0-70.024-31.49-70.024-70.003v-501.55c0-38.513 31.511-70.003 70.024-70.003h529.709c-39.581 19.62-72.864 50.085-95.921 87.509zM3303.977 179.329c-43.957 0-47.010-15.264-47.010-52.497v-82.706c0-37.254 3.074-51.899 47.010-51.899s47.010 14.645 47.010 51.899v82.706c0 37.232-3.074 52.497-47.010 52.497zM2743.931 179.329c-43.957 0-47.010-15.264-47.010-52.497v-82.706c0-37.254 3.074-51.899 47.010-51.899s47.010 14.645 47.010 51.899v82.706c0 37.232-3.053 52.497-47.010 52.497zM1604.647 49.912h39.068l-19.534 86.975zM3521.693 122.242v16.481c0 32.365-11.934 35.098-37.852 36.635h-34.201v-93.401h34.201c25.918 0 37.852 7.92 37.852 40.285zM2296.288 164.663c-21.968 0-27.775-12.831-27.775-35.098v-90.669c0-22.267 5.786-35.098 27.775-35.098s27.775 12.831 27.775 35.098v90.669c-0.021 22.288-5.807 35.098-27.775 35.098zM3814.216 175.060h-40.285v-180.121h40.285c43.979 0 47.010 13.77 47.010 50.981v78.137c0 37.254-3.032 51.003-47.010 51.003zM3971.643 259.11h-2984.469c-16.866 0-30.529-13.663-30.529-30.529v-283.385c0-16.866 13.663-30.529 30.529-30.529h2984.469c16.866 0 30.529 13.663 30.529 30.529v283.385c0 16.866-13.663 30.529-30.529 30.529zM1290.37-33.114h-44.577l-34.478 126.962-31.447-126.962h-44.256l-62.253 235.308h43.317l23.206-81.19 16.78-95.857 38.471 169.446h32.365l41.502-169.446 13.727 95.857 23.206 81.19h43.338l-58.902-235.308zM1443.719 3.82c30.508 0 38.15 12.831 38.15 36.037h42.121c0-51.6-24.423-73.291-80.272-73.291-55.87 0-78.457 21.69-78.457 70.217v95.536c0 49.743 21.669 70.195 78.457 70.195 56.767 0 80.272-20.772 80.272-72.949h-42.121c0 22.886-5.508 35.717-38.15 35.717-30.529 0-36.336-12.831-36.336-35.119v-91.245c0-22.267 5.807-35.098 36.336-35.098zM1666.303-32.815l-11.913 41.502h-60.119l-12.212-41.502h-43.338l65.007 234.731h41.822l64.089-234.731h-43.338zM1800.075 3.82c30.508 0 41.203 12.831 41.203 36.037v22.886h-39.986v38.129h79.055v-61.015c0-51.6-24.423-73.867-80.272-73.867-55.87 0-78.457 22.267-78.457 72.949v94.319c0 47.907 21.669 70.195 78.457 70.195 56.767 0 80.272-19.854 80.272-70.195h-42.121c0 21.968-5.508 32.963-38.15 32.963-30.529 0-36.336-13.749-36.336-35.119v-92.163c0-22.288 5.807-35.119 36.336-35.119zM2120.672 8.688v-41.502h-132.171v48.227c0 99.827 93.401 66.246 93.401 125.766 0 16.481-7.6 25.341-24.423 25.341-17.698 0-25.64-5.487-25.64-32.963h-42.121c0 47.010 19.534 70.195 68.060 70.195 46.391 0 66.246-26.857 66.246-61.955 0-100.404-93.401-53.735-93.401-125.446v-7.622h90.050zM2152.183-10.847c0 31.148 47.309 30.849 47.309 0-0.021-30.508-47.309-30.828-47.309 0zM2366.184 36.783c0-48.526-22.608-70.217-69.896-70.217-47.331 0-69.875 21.69-69.875 70.217v94.917c0 47.309 22.566 70.217 69.875 70.217s69.896-21.69 69.896-70.217v-94.917zM2628.477-32.815h-28.992v110.801l4.27 64.388-43.061-132.128h-14.026l-43.061 132.128 4.27-64.388v-110.801h-28.97v235.628h33.283l41.502-129.417 41.502 129.417h33.283v-235.628zM2820.254 44.404c0-51.579-11.592-79.354-76.322-79.354-64.687 0-76.28 27.775-76.28 79.354v82.108c0 51.579 11.592 79.375 76.28 79.375 64.73 0 76.322-27.796 76.322-79.375v-82.108zM2992.176-32.815h-27.177l-77.518 169.105 1.836-77.219v-91.886h-29.013v235.35h27.476l79.674-180.099-4.27 79.973v100.105h28.992v-235.329zM3064.272-33.114h-29.632v235.030h29.632v-235.030zM3214.803 174.44h-48.846v-207.255h-28.992v207.255h-48.846v26.857h126.706v-26.857zM3380.278 44.404c0-51.579-11.592-79.354-76.301-79.354s-76.301 27.775-76.301 79.354v82.108c0 51.579 11.592 79.375 76.301 79.375s76.301-27.796 76.301-79.375v-82.108zM3523.508-32.815l-47.309 86.997h-26.558v-87.296h-28.992v235.927l63.193 0.32c41.225 0 66.843-17.1 66.843-64.41v-16.481c0-37.553-11.272-59.82-43.957-66.224l50.981-88.833h-34.201zM3711.912-32.815h-126.364v235.628h118.721v-25.619h-89.729v-70.814h81.19v-27.156h-81.19v-84.862h97.394v-27.177zM3890.517 46.24c0-51.28-11.592-79.674-76.28-79.055h-69.299v235.35h71.433c62.873 0 74.166-27.796 74.166-78.756v-77.539z" />
<glyph unicode="&#xe907;" glyph-name="caret-right" horiz-adv-x="329" d="M329.143 426.667c0-9.714-4-18.857-10.857-25.714l-256-256c-6.857-6.857-16-10.857-25.714-10.857-20 0-36.571 16.571-36.571 36.571v512c0 20 16.571 36.571 36.571 36.571 9.714 0 18.857-4 25.714-10.857l256-256c6.857-6.857 10.857-16 10.857-25.714z" />
<glyph unicode="&#xe908;" glyph-name="caret-left" horiz-adv-x="402" d="M365.714 682.667v-512c0-20-16.571-36.571-36.571-36.571-9.714 0-18.857 4-25.714 10.857l-256 256c-6.857 6.857-10.857 16-10.857 25.714s4 18.857 10.857 25.714l256 256c6.857 6.857 16 10.857 25.714 10.857 20 0 36.571-16.571 36.571-36.571z" />
<glyph unicode="&#xe909;" glyph-name="pinterest" horiz-adv-x="878" d="M877.714 426.667c0-242.286-196.571-438.857-438.857-438.857-43.429 0-84.571 6.286-124.571 18.286 16.571 26.286 35.429 60 44.571 93.714 0 0 5.143 19.429 30.857 120.571 14.857-29.143 59.429-54.857 106.857-54.857 141.143 0 237.143 128.571 237.143 301.143 0 129.714-110.286 251.429-278.286 251.429-208 0-313.143-149.714-313.143-274.286 0-75.429 28.571-142.857 89.714-168 9.714-4 18.857 0 21.714 11.429 2.286 7.429 6.857 26.857 9.143 34.857 2.857 11.429 1.714 14.857-6.286 24.571-17.714 21.143-29.143 48-29.143 86.286 0 110.857 82.857 210.286 216 210.286 117.714 0 182.857-72 182.857-168.571 0-126.286-56-233.143-139.429-233.143-45.714 0-80 37.714-69.143 84.571 13.143 55.429 38.857 115.429 38.857 155.429 0 36-19.429 66.286-59.429 66.286-46.857 0-84.571-48.571-84.571-113.714 0 0 0-41.714 14.286-69.714-48-203.429-56.571-238.857-56.571-238.857-8-33.143-8.571-70.286-7.429-101.143-154.857 68-262.857 222.286-262.857 402.286 0 242.286 196.571 438.857 438.857 438.857s438.857-196.571 438.857-438.857z" />
<glyph unicode="&#xe90a;" glyph-name="pdf" horiz-adv-x="879" d="M656.696-12.985h-584.348v734.609h22.261v72.348h-94.609v-879.304h729.043v100.174h-72.348zM361.739 393.276h-83.478v-189.217h44.522v61.217h33.391c38.957 0 61.217 27.826 61.217 66.783 5.565 33.391-22.261 61.217-55.652 61.217zM350.609 304.232h-22.261v50.087h22.261c16.696 0 22.261-11.13 22.261-27.826 0-11.13-5.565-22.261-22.261-22.261zM612.174 938.667h-473.043v-879.304h740.174v612.174l-267.13 267.13zM795.826 137.276h-573.217v717.913h356.174l5.565-5.565v-161.391c0-27.826 22.261-55.652 55.652-55.652h161.391v-495.304zM634.435 204.058h44.522v72.348h61.217v38.957h-61.217v38.957h72.348v38.957h-116.87zM512 393.276h-72.348v-189.217h66.783c61.217 0 100.174 33.391 100.174 94.609s-38.957 94.609-94.609 94.609zM506.435 243.015h-16.696v111.304h16.696c33.391 0 50.087-16.696 50.087-55.652 5.565-38.957-16.696-55.652-50.087-55.652z" />
<glyph unicode="&#xe90b;" glyph-name="ppt" horiz-adv-x="1048" d="M702.035 713.863c82.873-3.81 152.409-73.347 157.172-156.22-52.391-0.953-104.781 0-157.172 0 0 52.391 0 104.781 0 156.22zM261.953 559.549c0-40.007-0.953-80.015 1.905-120.022 23.814 2.858 54.296 0 67.632 24.767 11.431 23.814 12.383 55.248-1.905 78.11-15.241 22.861-44.77 18.099-67.632 17.146zM1046.861 785.305c2.858 27.624-19.051 48.58-45.723 45.723-126.69 1.905-254.333 0-381.976 0.953 0 36.197 0 71.442 0 106.687h-67.632c-183.844-31.434-367.687-63.821-551.531-95.256 0-278.147 0-555.341 0-833.488 181.939-31.434 362.925-61.916 544.863-95.256h74.3c0 40.007 0 79.062 0 119.070 119.070 0 238.14 0 357.209 0 20.004 0.953 42.865-0.953 60.011 11.431 14.288 20.956 10.478 47.628 11.431 72.394-0.953 221.946 0.953 444.845-0.953 667.743zM349.589 387.136c-26.672-14.288-58.106-11.431-87.635-11.431 0-46.675 0-93.351 0-140.026-23.814 1.905-47.628 3.81-70.489 5.715-0.953 126.69-0.953 254.333 0 381.976 64.774-2.858 142.884 25.719 196.227-22.861 51.438-61.916 38.102-176.223-38.102-213.373zM1011.617 69.934c-131.453 0-261.953 0-392.454 0 0 31.434 0 63.821 0 95.256 95.256 0 190.512 0 285.767 0 0 16.193 0 31.434 0 47.628-95.256 0-190.512 0-285.767 0 0 20.004 0 40.007 0 59.059 95.256 0 190.512 0 285.767 0 0 16.193 0 31.434 0 47.628-95.256 0-190.512 0-285.767 0 0 23.814 0 46.675 0 70.489 47.628-14.288 100.971-14.288 142.884 14.288 45.723 26.672 69.537 78.11 73.347 130.5-52.391 0-104.781 0-157.172 0 0 51.438 0.953 103.829-0.953 155.267-19.051-3.81-39.055-7.62-58.106-12.383 0 39.055 0 79.062 0 119.070 131.453 0 261.953 0 392.454 0 0-242.902 0-484.852 0-726.802z" />
<glyph unicode="&#xe90c;" glyph-name="sale-percent" d="M407.731 565.364c0-19.014-15.414-34.428-34.428-34.428s-34.428 15.414-34.428 34.428c0 19.014 15.414 34.428 34.428 34.428s34.428-15.414 34.428-34.428zM685.618 287.97c0-19.014-15.414-34.428-34.428-34.428s-34.428 15.414-34.428 34.428c0 19.014 15.414 34.428 34.428 34.428s34.428-15.414 34.428-34.428zM947.766 406.010c-3.901 5.81-6.226 12.962-6.226 20.657s2.325 14.847 6.312 20.792l-0.085-0.135 71.808 98.367c2.803 3.375 4.504 7.753 4.504 12.528 0 8.421-5.291 15.607-12.73 18.413l-0.135 0.045-111.646 49.183c-12.389 6.26-20.736 18.89-20.736 33.47 0 0.856 0.029 1.706 0.085 2.548l-0.006-0.114 12.788 121.483c0.168 0.967 0.265 2.080 0.265 3.216 0 10.865-8.808 19.673-19.673 19.673-1.136 0-2.249-0.096-3.332-0.281l0.116 0.016-121.483-12.788c-0.728-0.051-1.578-0.079-2.434-0.079-14.58 0-27.21 8.347-33.372 20.523l-0.098 0.213-49.183 111.646c-2.851 7.574-10.037 12.866-18.458 12.866-4.775 0-9.153-1.701-12.56-4.53l0.032 0.026-98.367-71.808c-5.827-3.843-12.975-6.13-20.657-6.13s-14.83 2.287-20.8 6.218l0.143-0.088-98.367 71.808c-3.368 2.616-7.655 4.194-12.311 4.194-8.393 0-15.589-5.128-18.625-12.422l-0.049-0.133-49.183-111.646c-6.26-12.389-18.89-20.736-33.47-20.736-0.856 0-1.706 0.029-2.548 0.085l0.114-0.006-122.959 14.755c-0.967 0.168-2.080 0.265-3.216 0.265-10.865 0-19.673-8.808-19.673-19.673 0-1.136 0.096-2.249 0.281-3.332l-0.016 0.116 12.788-124.926c0.051-0.728 0.079-1.578 0.079-2.434 0-14.58-8.347-27.21-20.523-33.372l-0.213-0.098-111.646-49.183c-7.574-2.851-12.866-10.037-12.866-18.458 0-4.775 1.701-9.153 4.53-12.56l-0.026 0.032 71.808-98.367c3.843-5.827 6.13-12.975 6.13-20.657s-2.287-14.83-6.218-20.8l0.088 0.143-71.808-98.367c-2.803-3.375-4.504-7.753-4.504-12.528 0-8.421 5.291-15.607 12.73-18.413l0.135-0.045 111.646-49.183c12.389-6.26 20.736-18.89 20.736-33.47 0-0.856-0.029-1.706-0.085-2.548l0.006 0.114-12.788-120.008c-0.168-0.967-0.265-2.080-0.265-3.216 0-10.865 8.808-19.673 19.673-19.673 1.136 0 2.249 0.096 3.332 0.281l-0.116-0.016 121.483 12.788c0.64 0.039 1.387 0.061 2.14 0.061 14.657 0 27.369-8.326 33.664-20.506l0.099-0.212 49.183-111.646c2.851-7.574 10.037-12.866 18.458-12.866 4.775 0 9.153 1.701 12.56 4.53l-0.032-0.026 98.367 71.808c5.81 3.901 12.962 6.226 20.657 6.226s14.847-2.325 20.792-6.312l-0.135 0.085 98.367-71.808c3.375-2.803 7.753-4.504 12.528-4.504 8.421 0 15.607 5.291 18.413 12.73l0.045 0.135 49.183 111.646c6.395 12.392 19.107 20.718 33.764 20.718 0.753 0 1.501-0.022 2.243-0.065l-0.102 0.005 121.483-12.788c0.967-0.168 2.080-0.265 3.216-0.265 10.865 0 19.673 8.808 19.673 19.673 0 1.136-0.096 2.249-0.281 3.332l0.016-0.116-12.788 121.483c-0.051 0.728-0.079 1.578-0.079 2.434 0 14.58 8.347 27.21 20.523 33.372l0.213 0.098 111.646 49.183c7.574 2.851 12.866 10.037 12.866 18.458 0 4.775-1.701 9.153-4.53 12.56l0.026-0.032zM273.952 565.856c0 54.327 44.040 98.367 98.367 98.367s98.367-44.040 98.367-98.367c0-54.327-44.040-98.367-98.367-98.367v0c0 0-0.001 0-0.001 0-54.154 0-98.086 43.76-98.366 97.848v0.027zM383.631 237.802c-7.766-7.886-18.559-12.772-30.494-12.772s-22.727 4.886-30.488 12.766l-0.005 0.005c-7.886 7.766-12.772 18.559-12.772 30.494s4.886 22.727 12.766 30.488l0.005 0.005 319.201 317.233c7.804 7.804 18.585 12.631 30.494 12.631 23.817 0 43.125-19.308 43.125-43.125 0-11.909-4.827-22.69-12.631-30.494v0zM651.189 188.619c-54.327 0-98.367 44.040-98.367 98.367s44.040 98.367 98.367 98.367c54.327 0 98.367-44.040 98.367-98.367v0c0 0 0-0.001 0-0.001 0-54.327-44.040-98.367-98.367-98.367-0.173 0-0.346 0-0.519 0.001h0.027z" />
<glyph unicode="&#xe90d;" glyph-name="copy" horiz-adv-x="867" d="M826.141 768.752h-60.845v135.211c0 20.411-16.547 36.958-36.958 36.958h-476.845c-9.388-0.050-17.929-3.635-24.368-9.491l0.030 0.027-214.535-190.648c-7.675-6.74-12.522-16.541-12.62-27.476v-663.003c0-20.411 16.547-36.958 36.958-36.958v0h138.366v-55.437c0.252-22.301 18.263-40.312 40.539-40.563h609.827c22.301 0.252 40.312 18.263 40.563 40.539v769.827c0 0.003 0 0.006 0 0.010 0 22.335-17.852 40.499-40.066 41.003l-0.047 0.001zM690.93 85.033h-617.465v591.775h194.704v187.944h422.761v-780.169zM186.592 395.118h188.394v-71.662h-188.394v71.662zM186.592 268.921h402.479v-71.662h-402.479v71.662z" />
<glyph unicode="&#xe90e;" glyph-name="link" d="M947.934 862.601c-46.892 46.994-111.727 76.068-183.353 76.068-0.364 0-0.727-0.001-1.091-0.002h0.056c-0.287 0.001-0.627 0.002-0.967 0.002-72.972 0-139.025-29.626-186.786-77.507l-70.775-70.775c-48.035-47.937-77.753-114.213-77.753-187.43 0-35.5 6.986-69.368 19.658-100.304l-0.64 1.766 102.063 102.063c1.625 37.758 17.508 71.518 42.361 96.282l70.774 70.774c26.113 26.145 62.195 42.33 102.056 42.366h0.007c37.626-0.446 71.579-15.812 96.289-40.444l-0.004 0.004c25.109-25.951 40.583-61.357 40.583-100.378s-15.474-74.427-40.621-100.418l0.038 0.040-70.77-70.77c-24.827-24.68-58.588-40.397-96.009-41.876l-0.277-0.009-102.063-102.063c29.142-11.98 62.97-18.935 98.423-18.935 73.239 0 139.545 29.681 187.547 77.67l70.769 70.769c48.004 47.713 77.716 113.784 77.716 186.794 0 72.771-29.517 138.648-77.232 186.312l-0.002 0.002zM475.171 246.853c-1.488-37.698-17.204-71.459-41.891-96.293l0.007 0.007-71.252-70.77c-26.113-26.145-62.195-42.33-102.056-42.366h-0.007c-37.626 0.446-71.579 15.812-96.289 40.444l0.004-0.004c-25.109 25.951-40.583 61.357-40.583 100.378s15.474 74.427 40.621 100.418l-0.038-0.040 70.77 70.77c24.827 24.68 58.588 40.397 96.009 41.876l0.277 0.009 102.063 102.063c-29.142 11.98-62.97 18.935-98.423 18.935-73.239 0-139.545-29.681-187.547-77.67l-70.769-70.769c-47.573-47.642-76.993-113.421-76.993-186.072s29.42-138.431 76.996-186.076l-0.003 0.003c46.892-46.994 111.727-76.068 183.353-76.068 0.364 0 0.727 0.001 1.091 0.002h-0.056c0.287-0.001 0.627-0.002 0.967-0.002 72.972 0 139.025 29.626 186.786 77.507l70.775 70.775c47.988 48.001 77.669 114.308 77.669 187.546 0 35.452-6.955 69.281-19.574 100.194l0.64-1.772zM344.703 258.889c10.973-10.95 26.119-17.721 42.847-17.721s31.875 6.771 42.848 17.722l249.379 249.379c9.815 10.74 15.828 25.099 15.828 40.862 0 33.502-27.158 60.66-60.66 60.66-15.763 0-30.123-6.013-40.909-15.87l0.047 0.042-249.38-249.38c-10.95-10.973-17.721-26.119-17.721-42.847s6.771-31.875 17.722-42.848l-0.001 0.001z" />
<glyph unicode="&#xe90f;" glyph-name="instagram" horiz-adv-x="878" d="M585.143 426.667c0 80.571-65.714 146.286-146.286 146.286s-146.286-65.714-146.286-146.286 65.714-146.286 146.286-146.286 146.286 65.714 146.286 146.286zM664 426.667c0-124.571-100.571-225.143-225.143-225.143s-225.143 100.571-225.143 225.143 100.571 225.143 225.143 225.143 225.143-100.571 225.143-225.143zM725.714 660.953c0-29.143-23.429-52.571-52.571-52.571s-52.571 23.429-52.571 52.571 23.429 52.571 52.571 52.571 52.571-23.429 52.571-52.571zM438.857 786.667c-64 0-201.143 5.143-258.857-17.714-20-8-34.857-17.714-50.286-33.143s-25.143-30.286-33.143-50.286c-22.857-57.714-17.714-194.857-17.714-258.857s-5.143-201.143 17.714-258.857c8-20 17.714-34.857 33.143-50.286s30.286-25.143 50.286-33.143c57.714-22.857 194.857-17.714 258.857-17.714s201.143-5.143 258.857 17.714c20 8 34.857 17.714 50.286 33.143s25.143 30.286 33.143 50.286c22.857 57.714 17.714 194.857 17.714 258.857s5.143 201.143-17.714 258.857c-8 20-17.714 34.857-33.143 50.286s-30.286 25.143-50.286 33.143c-57.714 22.857-194.857 17.714-258.857 17.714zM877.714 426.667c0-60.571 0.571-120.571-2.857-181.143-3.429-70.286-19.429-132.571-70.857-184s-113.714-67.429-184-70.857c-60.571-3.429-120.571-2.857-181.143-2.857s-120.571-0.571-181.143 2.857c-70.286 3.429-132.571 19.429-184 70.857s-67.429 113.714-70.857 184c-3.429 60.571-2.857 120.571-2.857 181.143s-0.571 120.571 2.857 181.143c3.429 70.286 19.429 132.571 70.857 184s113.714 67.429 184 70.857c60.571 3.429 120.571 2.857 181.143 2.857s120.571 0.571 181.143-2.857c70.286-3.429 132.571-19.429 184-70.857s67.429-113.714 70.857-184c3.429-60.571 2.857-120.571 2.857-181.143z" />
<glyph unicode="&#xe910;" glyph-name="download-pointed-arrow" horiz-adv-x="1043" d="M521.671 140.85l370.703 438.397h-188.038v359.421h-365.868v-359.421h-188.038l185.352-219.198 185.889-219.198zM898.821 306.86v-231.018h-754.837v231.018h-143.983v-392.193h1042.804v392.193h-143.983z" />
<glyph unicode="&#xe911;" glyph-name="park-garbage" horiz-adv-x="972" d="M950.103 938.667h-926.59c-0.053 0-0.115 0.001-0.177 0.001-12.986 0-23.513-10.527-23.513-23.513 0-1.015 0.064-2.015 0.189-2.996l-0.012 0.116 17.275-167.468c1.934-14.723 14.228-26.024 29.234-26.391l0.037-0.001h11.037l82.054-762.962c3.409-23.455 23.38-41.269 47.513-41.269 0.166 0 0.332 0.001 0.498 0.003h600.267c0.14-0.001 0.306-0.002 0.472-0.002 24.132 0 44.104 17.814 47.482 41.010l0.031 0.259 82.054 762.962h11.037c15.043 0.368 27.336 11.668 29.254 26.239l0.016 0.153 17.275 167.468c0.12 0.893 0.189 1.925 0.189 2.974 0 12.986-10.527 23.513-23.513 23.513-0.742 0-1.476-0.034-2.201-0.102l0.093 0.007zM657.874 669.471l54.703-47.985c2.589-1.402 4.319-4.098 4.319-7.198s-1.729-5.796-4.276-7.176l-0.043-0.021-71.018-36.948c-3.072-1.915-6.802-3.050-10.797-3.050s-7.725 1.135-10.884 3.101l0.088-0.051-57.582 47.985c-2.589 1.402-4.319 4.098-4.319 7.198s1.729 5.796 4.276 7.176l0.043 0.021 73.897 37.428c2.815 1.286 6.105 2.036 9.571 2.036 3.859 0 7.502-0.93 10.715-2.578l-0.132 0.062zM422.268 425.707c2.548-2.039 4.166-5.149 4.166-8.637s-1.618-6.598-4.144-8.62l-0.022-0.017-23.513-22.553-27.831-28.791c-2.535-2.275-5.904-3.666-9.597-3.666s-7.062 1.391-9.61 3.678l0.013-0.012-58.062 44.146c-2.417 2.203-3.927 5.363-3.927 8.877s1.511 6.675 3.918 8.869l0.010 0.009s20.634 23.033 36.469 38.868l13.436 12.956c2.772 2.097 6.277 3.359 10.077 3.359s7.305-1.262 10.119-3.39l-0.042 0.031zM415.55 534.633l59.501 47.985c2.954 2.042 6.613 3.262 10.557 3.262s7.602-1.22 10.619-3.303l-0.063 0.041 59.501-47.985c2.744-1.721 4.541-4.729 4.541-8.157s-1.798-6.437-4.501-8.134l-0.040-0.023-59.022-47.985c-2.842-2.135-6.429-3.419-10.317-3.419s-7.475 1.284-10.361 3.451l0.045-0.032-59.022 47.985c-2.825 1.705-4.684 4.757-4.684 8.244 0 3.079 1.45 5.818 3.703 7.575l0.021 0.016zM424.187 311.023l24.952 25.912 26.872 25.912c2.492 2.376 5.874 3.839 9.597 3.839s7.105-1.462 9.603-3.844l-0.006 0.005s14.875-13.916 26.872-25.912l24.952-25.912c2.464-2.362 3.995-5.681 3.995-9.357s-1.531-6.995-3.99-9.353l-0.005-0.004-26.872-25.912c-11.516-11.516-24.952-25.912-24.952-25.912-2.283-2.439-5.523-3.96-9.117-3.96s-6.834 1.52-9.111 3.953l-0.006 0.007s-12.956 14.396-24.952 25.912-26.872 25.912-26.872 25.912c-2.358 2.418-3.813 5.728-3.813 9.377 0 3.4 1.263 6.506 3.346 8.873l-0.013-0.015zM547.989 406.993c-2.548 2.039-4.166 5.149-4.166 8.637s1.618 6.598 4.144 8.62l0.022 0.017 59.501 44.626c2.772 2.097 6.277 3.359 10.077 3.359s7.305-1.262 10.119-3.39l-0.042 0.031 13.436-12.956c15.835-15.835 36.469-38.868 36.469-38.868 2.561-2.128 4.18-5.313 4.18-8.877s-1.619-6.75-4.161-8.862l-0.019-0.015-58.062-44.146c-2.535-2.275-5.904-3.666-9.597-3.666s-7.062 1.391-9.61 3.678l0.013-0.012-27.831 28.791zM568.142 717.456l-71.018-39.828c-3.265-1.773-7.149-2.815-11.276-2.815s-8.012 1.042-11.403 2.878l0.127-0.063-71.018 39.828h162.669zM260.559 621.486l54.703 47.985c3.804 2.76 8.567 4.415 13.715 4.415 3.004 0 5.877-0.563 8.518-1.59l-0.16 0.055 73.897-37.428c2.589-1.402 4.319-4.098 4.319-7.198s-1.729-5.796-4.276-7.176l-0.043-0.021-57.582-47.985c-3.057-1.967-6.791-3.136-10.797-3.136s-7.739 1.169-10.877 3.184l0.080-0.048-71.018 36.948c-2.354 1.459-3.899 4.028-3.899 6.958s1.545 5.499 3.864 6.938l0.035 0.020zM164.589 643.079c-4.656 3.143-7.678 8.401-7.678 14.363 0 0.011 0 0.023 0 0.034v-0.002l-4.319 39.828v19.674h50.384l31.19-11.996c3.204-0.774 5.547-3.616 5.547-7.006 0-2.463-1.237-4.637-3.123-5.934l-0.024-0.016-47.985-43.187c-4.828-2.725-10.6-4.33-16.747-4.33-2.051 0-4.061 0.179-6.013 0.522l0.207-0.030zM176.585 482.809l-3.839 36.469c2.607 12.060 7.981 22.59 15.435 31.285l-0.080-0.095c2.712 3.954 6.707 6.857 11.375 8.125l0.141 0.033c29.271-11.516 78.216-37.908 78.216-37.908s8.157-9.597 3.839-13.436l-3.839-3.839c-19.194-19.194-47.985-47.985-47.985-47.985-3.109-3.029-7.362-4.897-12.051-4.897-2.965 0-5.756 0.747-8.195 2.064l0.092-0.045-23.033 12.956c-5.131 5.025-8.388 11.946-8.636 19.628l-0.001 0.046zM200.577 269.276v15.355c-0.061 0.816-0.096 1.767-0.096 2.726 0 7.912 2.364 15.271 6.424 21.411l-0.090-0.145 24.952 33.11c2.475 3.323 6.392 5.452 10.807 5.452 2.973 0 5.72-0.965 7.945-2.6l-0.037 0.026 57.102-43.666c2.464-2.362 3.995-5.681 3.995-9.357s-1.531-6.995-3.99-9.353l-0.005-0.004-42.707-57.102c-2.283-2.439-5.523-3.96-9.117-3.96s-6.834 1.52-9.111 3.953l-0.006 0.007-33.11 26.392c-6.166 5.415-10.372 12.93-11.497 21.417l-0.019 0.176zM319.58 40.388h-69.578c-0.428-0.085-0.919-0.133-1.422-0.133-4.24 0-7.678 3.437-7.678 7.678 0 1.67 0.533 3.215 1.438 4.474l-0.016-0.023 21.593 42.227c1.215 3.704 4.641 6.332 8.681 6.332 2.171 0 4.166-0.759 5.731-2.026l-0.017 0.013 3.839-3.839c17.754-17.754 41.747-44.626 41.747-44.626s2.399-7.678-2.879-7.678zM367.565 105.167s-20.634 22.553-36.469 38.388l-13.436 13.436c-2.218 2.644-3.565 6.083-3.565 9.837s1.347 7.193 3.584 9.861l-0.019-0.024 44.626 59.022c2.203 2.417 5.363 3.927 8.877 3.927s6.675-1.511 8.869-3.918l0.009-0.010 23.513-23.033 27.831-28.791c2.135-2.675 3.426-6.105 3.426-9.837s-1.291-7.162-3.451-9.869l0.025 0.032-45.586-59.022c-1.88-1.756-4.413-2.835-7.198-2.835-3.869 0-7.252 2.081-9.090 5.185l-0.027 0.049zM531.674 40.388h-108.446l7.678 11.037 45.106 60.461c1.721 2.744 4.729 4.541 8.157 4.541s6.437-1.798 8.134-4.501l0.023-0.040 45.106-60.461 7.678-11.037h-13.436zM601.252 105.167c-1.948-2.539-4.984-4.159-8.397-4.159s-6.449 1.62-8.379 4.134l-0.018 0.025-45.586 59.022c-2.218 2.644-3.565 6.083-3.565 9.837s1.347 7.193 3.584 9.861l-0.019-0.024 27.831 28.791 23.513 23.033c2.203 2.417 5.363 3.927 8.877 3.927s6.675-1.511 8.869-3.918l0.009-0.010 44.626-59.022c2.218-2.644 3.565-6.083 3.565-9.837s-1.347-7.193-3.584-9.861l0.019 0.024-13.436-13.436c-15.355-14.396-36.469-35.989-36.469-35.989zM719.775 40.388h-69.578c-7.198 0-9.117 4.319-4.319 9.597s23.993 26.872 41.747 44.626l3.839 3.839c1.549 1.254 3.543 2.013 5.714 2.013 4.040 0 7.466-2.628 8.663-6.267l0.018-0.064 21.593-42.227c0.1-0.465 0.158-1 0.158-1.547 0-3.787-2.742-6.934-6.35-7.563l-0.046-0.007zM767.76 280.313v-10.077c-1.435-8.525-5.774-15.847-11.945-21.071l-0.051-0.042-33.11-26.392c-2.283-2.439-5.523-3.96-9.117-3.96s-6.834 1.52-9.111 3.953l-0.006 0.007-42.227 61.421c-2.464 2.362-3.995 5.681-3.995 9.357s1.531 6.995 3.99 9.353l0.005 0.004 57.102 43.666c2.188 1.608 4.935 2.573 7.907 2.573 4.415 0 8.332-2.129 10.781-5.417l0.025-0.036 24.952-33.11c3.948-6.030 6.297-13.417 6.297-21.352 0-0.76-0.022-1.515-0.064-2.264l0.005 0.104v-5.278zM792.232 496.725v-12.956c-1.455-8.148-6.226-14.966-12.838-19.125l-0.118-0.069-23.033-12.956c-2.347-1.271-5.138-2.018-8.103-2.018-4.689 0-8.942 1.868-12.054 4.901l0.004-0.004s-27.351 30.231-47.985 47.985l-3.839 3.839c-4.319 3.839 0 10.077 3.839 13.436s47.985 26.392 78.216 37.908v0c4.809-1.3 8.804-4.204 11.472-8.089l0.044-0.068c7.289-8.641 12.646-19.151 15.262-30.702l0.093-0.488zM813.346 684.826l-2.879-26.392c-2.137-7.279-7.182-13.109-13.759-16.248l-0.156-0.067c-6.254 0.254-11.83 2.965-15.825 7.187l-0.010 0.011-47.985 43.187c-1.986 1.191-3.295 3.333-3.295 5.78 0 3.519 2.705 6.405 6.149 6.694l0.025 0.002 38.868 12.476h42.707z" />
<glyph unicode="&#xe912;" glyph-name="trees" horiz-adv-x="947" d="M884.634 466.607c2.901 12.742 4.599 27.397 4.674 42.437v0.053c-55.796 117.171-142.431 212.001-249.502 276.276l-2.886 1.607c-64.019-3.907-117.303-45.891-137.753-103.434l-0.338-1.090c39.75-101.242 69.629-219.028 84.303-341.488l0.676-6.927c-0.291-90.192-36.749-171.813-95.623-231.166l0.022 0.022c28.247-9.579 61.253-16.775 95.363-20.236l1.938-0.159v-169.959h104.524v169.959c124.070 12.322 257.062 68.408 257.062 225.195 0.028 1.311 0.044 2.856 0.044 4.404 0 60.069-23.834 114.571-62.561 154.566l0.057-0.059zM254.088 938.667c-93.902 0-254.938-463.137-254.938-603.778 0.384-121.665 85.934-223.239 200.139-248.254l1.687-0.31v-169.959h104.524v169.959c115.892 25.325 201.442 126.899 201.826 248.522v0.043c0.85 140.216-159.336 603.778-253.238 603.778z" />
<glyph unicode="&#xe913;" glyph-name="handshake" horiz-adv-x="1251" d="M1234.796 648.995l-271.222 271.222c-10.199 10.279-24.332 16.642-39.951 16.642-0.712 0-1.421-0.013-2.126-0.039l0.102 0.003c-1.759 0.156-3.805 0.245-5.872 0.245-9.695 0-18.933-1.955-27.342-5.492l0.464 0.173-225.095-92.252-264.303 89.023c-14.246 6.416-30.882 10.154-48.391 10.154-32.683 0-62.324-13.024-84.017-34.164l0.026 0.025-236.627-236.627c-17.743-19.368-28.615-45.284-28.615-73.739 0-3.595 0.174-7.15 0.513-10.656l-0.035 0.446c2.839-30.64 16.225-57.709 36.441-77.955l160.518-160.518-16.605-17.067c-12.693-12.689-20.544-30.22-20.544-49.586s7.851-36.897 20.544-49.585v0c8.235 3.674 17.845 5.814 27.955 5.814 38.722 0 70.112-31.39 70.112-70.112 0-10.11-2.14-19.72-5.991-28.402l0.177 0.447c12.689-12.693 30.22-20.544 49.586-20.544s36.897 7.851 49.585 20.544v0c-12.693-12.689-20.544-30.22-20.544-49.586s7.851-36.897 20.544-49.585v0c12.69 12.69 30.221 20.539 49.586 20.539 38.729 0 70.125-31.396 70.125-70.125 0-19.364-7.849-36.896-20.539-49.586v0c12.689-12.693 30.22-20.544 49.586-20.544s36.897 7.851 49.585 20.544v0l23.063 22.602c2.351-0.066 5.119-0.104 7.895-0.104 121.019 0 225.24 71.922 272.251 175.354l0.763 1.875c38.751 54.342 89.681 97.588 148.964 126.291l2.329 1.017c24.178 24.478 39.112 58.135 39.112 95.28 0 13.551-1.988 26.638-5.687 38.984l0.247-0.96 172.973 172.973c10.274 10.268 16.629 24.457 16.629 40.13s-6.355 29.862-16.629 40.13v0zM962.191 329.341c-7.848-7.855-18.693-12.714-30.674-12.714s-22.826 4.859-30.674 12.714v0l-120.85 120.85c-3.602 3.573-8.403 5.942-13.747 6.451l-0.091 0.007h-5.535c-4.918-0.828-9.192-3.141-12.451-6.455l-0.003-0.003c-2.939-2.943-5.055-6.71-5.97-10.924l-0.027-0.146c-0.090-0.692-0.141-1.493-0.141-2.306s0.051-1.614 0.151-2.4l-0.010 0.093c-0.152-0.901-0.239-1.94-0.239-2.998s0.087-2.097 0.254-3.108l-0.015 0.11v-3.229c1.201-2.106 2.577-3.923 4.156-5.54l121.307-121.307c7.713-7.827 12.476-18.579 12.476-30.443 0-23.958-19.422-43.381-43.381-43.381-12.094 0-23.032 4.949-30.899 12.932l-120.855 120.855c-2.623 2.565-5.888 4.486-9.531 5.498l-0.156 0.037h-5.996c-5.644-0.139-10.779-2.207-14.798-5.566l0.038 0.031c-3.487-3.318-5.843-7.797-6.448-12.814l-0.010-0.101c-0.028-0.345-0.044-0.747-0.044-1.153s0.016-0.808 0.047-1.206l-0.003 0.053s0 0 0-2.768c0.692-5.1 3.031-9.557 6.454-12.912l0.004-0.004 92.252-89.946 31.366-31.366c7.577-7.802 12.249-18.462 12.249-30.213 0-23.96-19.424-43.384-43.384-43.384-12.21 0-23.241 5.044-31.125 13.161l-0.010 0.011-120.85 120.85c-2.075 1.931-4.525 3.492-7.224 4.558l-0.156 0.054c-10.634 6.839-23.617 10.902-37.548 10.902-19.387 0-36.937-7.869-49.629-20.587l-0.001-0.001c12.69 12.69 20.539 30.221 20.539 49.586 0 38.729-31.396 70.125-70.125 70.125-19.364 0-36.896-7.849-49.586-20.539l-28.598-28.598c2.732 7.172 4.313 15.467 4.313 24.13 0 38.467-31.184 69.65-69.65 69.65-16.321 0-31.331-5.614-43.205-15.016l0.145 0.111-161.441 161.441c-5.455 5.401-9.144 12.575-10.131 20.587l-0.017 0.17c-0.081 0.64-0.127 1.38-0.127 2.131 0 4.698 1.801 8.976 4.751 12.18l-0.012-0.013 230.631 230.631c5 4.019 11.425 6.45 18.418 6.45 4.894 0 9.51-1.191 13.573-3.299l-0.164 0.077 170.667-57.658-92.252-39.207c-26.462-11.174-44.696-36.909-44.696-66.902 0-9.977 2.018-19.483 5.667-28.132l-0.178 0.476c11.174-26.462 36.909-44.696 66.902-44.696 9.977 0 19.483 2.018 28.132 5.667l-0.476-0.178 171.589 72.418 294.746-294.746c7.855-7.848 12.714-18.693 12.714-30.674s-4.859-22.826-12.714-30.674v0z" />
<glyph unicode="&#xe914;" glyph-name="target-and-arrow" horiz-adv-x="1023" d="M742.012 500.948c21.497-43.264 34.076-94.221 34.076-148.117 0-187.193-151.75-338.944-338.944-338.944s-338.944 151.75-338.944 338.944c0 187.193 151.75 338.944 338.944 338.944 61.582 0 119.327-16.423 169.097-45.128l-1.639 0.872c-6.959 21.267-10.972 45.741-10.972 71.152 0 15.687 1.529 31.017 4.447 45.848l-0.245-1.497c-48.174 19.59-104.062 30.959-162.605 30.959-244.385 0-442.499-198.113-442.499-442.499s198.113-442.499 442.499-442.499c244.385 0 442.499 198.113 442.499 442.499 0 54.201-9.745 106.127-27.579 154.119l0.996-3.061c-17.056-5.778-36.701-9.112-57.125-9.112-18.539 0-36.436 2.748-53.307 7.858l1.3-0.339zM996.12 758.641l-74.48 15.533c-3.77 0.559-8.121 0.879-12.546 0.879s-8.777-0.319-13.031-0.936l0.485 0.058s42.617 59.743 32.261 70.099-69.302-31.465-69.302-31.465c0.557 3.591 0.875 7.733 0.875 11.949s-0.318 8.358-0.931 12.403l0.057-0.454-15.533 74.48c0.002 0.129 0.004 0.28 0.004 0.432 0 14.518-11.769 26.287-26.287 26.287-9.366 0-17.588-4.898-22.244-12.273l-0.064-0.108-121.876-121.876c-17.526-19.56-28.241-45.538-28.241-74.019 0-5.643 0.421-11.188 1.232-16.605l-0.075 0.611s23.101-114.309-11.949-149.757l-211.093-208.305c-2.079-2.134-4.434-3.982-7.013-5.492l-0.156-0.084c-1.729 6.064-2.723 13.029-2.723 20.226 0 20.231 7.856 38.627 20.685 52.304l-0.038-0.041c-35.191-2.915-62.647-32.195-62.647-67.888 0-37.615 30.493-68.107 68.107-68.107 35.434 0 64.548 27.060 67.804 61.642l0.021 0.272 75.277 77.666c10.276-20.454 16.303-44.57 16.33-70.090v-0.009c0-87.987-71.328-159.315-159.315-159.315s-159.315 71.328-159.315 159.315c0 87.987 71.328 159.315 159.315 159.315v0c24.949-0.153 48.494-6.016 69.439-16.348l-0.933 0.416 71.294 71.294c-41.148 27.758-91.849 44.309-146.415 44.309-145.839 0-264.065-118.226-264.065-264.065s118.226-264.065 264.065-264.065c145.839 0 264.065 118.226 264.065 264.065 0 53.584-15.96 103.441-43.386 145.075l0.614-0.993 30.668 31.067c15.533 11.895 35.235 19.061 56.611 19.061 12.159 0 23.776-2.318 34.434-6.537l-0.634 0.221c4.768-0.722 10.27-1.135 15.868-1.135 28.518 0 54.535 10.704 74.254 28.314l-0.109-0.096 144.579 144.579c7.133 4.777 11.766 12.803 11.766 21.912 0 14.314-11.44 25.955-25.676 26.28l-0.030 0.001z" />
<glyph unicode="&#xe915;" glyph-name="map-search" horiz-adv-x="1045" d="M809.983 278.344l-172.875-82.943-2.225 102.647c-13.992 7.112-25.957 14.603-37.192 23.027l0.646-0.464 2.541-119.49-245.015 84.848 84.848 295.544 57.202-26.696c2.686 23.558 8.17 45.055 16.173 65.28l-0.602-1.72-65.149 31.782c-4.030 1.983-8.767 3.142-13.782 3.142-3.129 0-6.15-0.455-9.005-1.296l0.225 0.058-208.153-60.38c-8.715-2.575-15.724-8.543-19.62-16.343l-0.082-0.183-194.803-402.005c-1.968-4.011-3.117-8.737-3.117-13.728 0-17.55 14.226-31.782 31.782-31.782 3.619 0 7.092 0.603 10.331 1.719l-0.222-0.068 289.824 100.102 290.461-100.736c2.966-1.010 6.383-1.596 9.94-1.596 0.193 0 0.389 0.004 0.575 0.004l-0.029-0.001c4.975 0.032 9.675 1.202 13.853 3.262l-0.185-0.082 239.295 114.723-43.855 43.855c-8.543-3.606-19.124-7.19-29.983-10.078l-1.792-0.408zM319.636 291.376v0l-228.172-79.765 155.396 320.647 155.080 45.123zM1027.984 317.75l-105.82 106.139c17.465 29.14 27.797 64.295 27.797 101.86 0 110.745-89.778 200.523-200.523 200.523s-200.523-89.778-200.523-200.523c0-110.745 89.778-200.523 200.523-200.523 37.566 0 72.719 10.331 102.775 28.305l-0.914-0.508 105.82-106.139c9.245-10.458 22.694-17.016 37.675-17.016 27.729 0 50.209 22.48 50.209 50.209 0 14.98-6.558 28.429-16.965 37.629l-0.051 0.046zM842.718 432.155c-23.925-23.953-56.998-38.769-93.527-38.769-73.014 0-132.2 59.187-132.2 132.2s59.187 132.2 132.2 132.2c36.529 0 69.599-14.816 93.527-38.767l0.002-0.002c23.895-23.916 38.672-56.949 38.672-93.43s-14.778-69.512-38.672-93.433l0.002 0.002z" />
<glyph unicode="&#xe916;" glyph-name="devices" horiz-adv-x="1103" d="M551.421 230.031h-472.579v629.795h866.318v-157.682h78.841v157.682c0 43.543-35.298 78.841-78.841 78.841v0h-866.318c-43.543 0-78.841-35.298-78.841-78.841v0-708.636c0-43.543 35.298-78.841 78.841-78.841v0h353.152c-0.15-47.893-30.986-88.545-73.872-103.335l-0.771-0.231-43.386-14.462v-39.187h257.983c-13.433 22.579-21.398 49.774-21.46 78.823v236.074zM1024 624.236h-314.897c-43.543 0-78.841-35.298-78.841-78.841v0-551.421c0-43.543 35.298-78.841 78.841-78.841v0h314.897c43.543 0 78.841 35.298 78.841 78.841v0 550.954c0.001 0.139 0.001 0.303 0.001 0.467 0 43.543-35.298 78.841-78.841 78.841 0 0-0.001 0-0.001 0v0zM866.318-49.411c-23.961 0-43.386 19.425-43.386 43.386s19.425 43.386 43.386 43.386c23.961 0 43.386-19.425 43.386-43.386v0c0-23.961-19.425-43.386-43.386-43.386v0zM1024 72.816h-314.897v472.113h314.897v-472.579z" />
<glyph unicode="&#xe917;" glyph-name="touch-tap" horiz-adv-x="752" d="M95.605 603.655c-0.001 0.252-0.002 0.551-0.002 0.85 0 132.221 107.186 239.407 239.407 239.407s239.407-107.186 239.407-239.407c0-32.642-6.533-63.757-18.362-92.111l0.585 1.582 81.383-52.938c20.328 41.957 32.209 91.256 32.209 143.33 0 185.022-149.99 335.012-335.012 335.012s-335.012-149.99-335.012-335.012c0-121.814 65.014-228.443 162.236-287.081l1.505-0.842 29.63 95.21c-59.658 43.584-97.975 113.297-97.975 191.959 0 0.014 0 0.029 0 0.043v-0.002zM751.012 265.482v0c0.024 0.708 0.038 1.54 0.038 2.375 0 40.583-32.899 73.481-73.481 73.481-0.291 0-0.582-0.002-0.873-0.005h0.044c-1.719 0.207-3.71 0.326-5.728 0.326s-4.009-0.118-5.966-0.348l0.237 0.023h-9.086c-18.568 4.741-39.506 44.642-67.556 51.753s-48.198-13.037-79.012-3.951c-12.413 7.725-23.117 15.537-33.211 24.050l0.421-0.346c-9.865 7.389-22.309 11.831-35.79 11.831-19.078 0-36.078-8.897-47.078-22.768l-0.095-0.124v225.975c-4.836 28.727-29.524 50.34-59.259 50.34s-54.423-21.613-59.21-49.987l-0.049-0.353v-337.778l-39.506-33.58c-3.394-2.406-6.367-5.003-9.057-7.87l-0.029-0.032c-9.861-10.248-15.997-24.142-16.197-39.467v-89.718c0.201-15.364 6.337-29.258 16.215-39.525l-0.018 0.019 85.728-163.556h349.235l59.654 145.383 30.42 205.037z" />
<glyph unicode="&#xe918;" glyph-name="newspaper" horiz-adv-x="1433" d="M182.723 938.667v-782.87c0-22.491-18.233-40.724-40.724-40.724s-40.724 18.233-40.724 40.724v0 550.849h-100.739v-580.32s0-214.338 181.651-214.338h1048.113c111.447 0.304 201.71 90.567 202.014 201.984v824.695h-1249.591zM1320.858 130.613c0.001-0.161 0.001-0.351 0.001-0.541 0-62.739-50.86-113.599-113.599-113.599-0.377 0-0.754 0.002-1.131 0.006h-984.289s69.124 20.898 69.124 146.822v673.021h1029.894v-705.708zM780.726 321.373h465.649v-65.373h-465.649v65.373zM780.726 179.374h465.649v-65.373h-465.649v65.373zM382.593 333.698h232.557v-232.557h-232.557v232.557zM383.129 727.008h863.246v-279.711h-863.246v279.711z" />
<glyph unicode="&#xe919;" glyph-name="eye" horiz-adv-x="1035" d="M907.425 603.845c-106.615 82.988-242.424 133.052-389.925 133.052s-283.311-50.064-391.36-134.127l1.435 1.074c-71.928-53.757-127.578-135.528-127.578-177.17s70.035-129.092 127.578-179.82c107.167-81.412 242.823-130.417 389.925-130.417s282.759 49.008 391.531 131.587l-1.605-1.169c57.542 50.727 127.578 138.177 127.578 179.82s-57.164 123.413-127.578 177.17zM517.5 206.727c-121.474 0-219.948 98.473-219.948 219.948s98.473 219.948 219.948 219.948c121.474 0 219.948-98.473 219.948-219.948v0c0-121.474-98.473-219.948-219.948-219.948v0zM517.5 547.816c-11.907-0.094-23.358-1.885-34.175-5.144l0.86 0.223c23.417-9.734 39.584-32.425 39.584-58.891 0-35.125-28.475-63.6-63.6-63.6-26.466 0-49.156 16.167-58.736 39.163l-0.155 0.421c-2.965-9.98-4.671-21.448-4.671-33.314 0-66.905 54.238-121.142 121.142-121.142s121.142 54.238 121.142 121.142c0 66.905-54.238 121.142-121.142 121.142-0.088 0-0.176 0-0.264 0h0.014z" />
<glyph unicode="&#xe91a;" glyph-name="desktop-monitor-cursor" horiz-adv-x="1179" d="M799.298-37.183c-88.811 2.675-95.231 127.331-95.231 127.331h-228.982s-6.955-124.656-95.766-126.796c-40.125-5.885-37.45-47.615 0-47.615h419.979c36.915-0.535 40.125 40.66 0 47.080zM1067.87 938.667h-957.124c-61.041-0.302-110.444-49.705-110.746-110.717v-585.325c0.302-61.041 49.705-110.444 110.717-110.746h957.153c61.041 0.302 110.444 49.705 110.746 110.717v585.325c-0.302 61.041-49.705 110.444-110.717 110.746h-0.029zM589.576 167.189c-13.887 0-25.145 11.258-25.145 25.145s11.258 25.145 25.145 25.145c13.887 0 25.145-11.258 25.145-25.145v0c0-13.887-11.258-25.145-25.145-25.145v0zM1063.055 297.731c0-29.548-23.953-53.501-53.501-53.501v0h-842.098c-29.548 0-53.501 23.953-53.501 53.501v0 474.55c0 29.548 23.953 53.501 53.501 53.501v0h844.238c29.548 0 53.501-23.953 53.501-53.501v0-475.085zM462.245 701.125l1.070-287.298 89.881 55.106 60.991-99.511 66.341 40.125-60.991 99.511 96.301 53.501-253.592 138.566z" />
<glyph unicode="&#xe91b;" glyph-name="list-menu" horiz-adv-x="1040" d="M65.268 142.283h129.988c35.744 0 64.72-28.976 64.72-64.72v0-97.628c0-36.047-29.222-65.268-65.268-65.268v0h-129.44c-0.001 0-0.002 0-0.002 0-35.854 0-64.955 28.91-65.266 64.69v97.657c0 36.047 29.222 65.268 65.268 65.268v0zM65.268 548.702h129.988c0.001 0 0.001 0 0.002 0 35.744 0 64.72-28.976 64.72-64.72 0-0.193-0.001-0.385-0.003-0.578v0.029-97.628c0-36.047-29.222-65.268-65.268-65.268h-129.44c-36.047 0-65.268 29.222-65.268 65.268v0 97.628c0 36.047 29.222 65.268 65.268 65.268v0zM65.268 938.667h129.988c35.744 0 64.72-28.976 64.72-64.72v0-99.822c-1.21-34.913-29.663-62.791-64.692-63.074h-130.016c-0.011 0-0.024 0-0.037 0-35.275 0-64.014 27.984-65.228 62.963l-0.003 0.111v99.274c0 36.047 29.222 65.268 65.268 65.268v0zM552.861 548.702h422.873c0.326 0.006 0.711 0.009 1.097 0.009 36.047 0 65.268-29.222 65.268-65.268 0-0.003 0-0.006 0-0.010v0.001-97.628c0-36.047-29.222-65.268-65.268-65.268h-423.97c-35.744 0-64.72 28.976-64.72 64.72v0 98.177c0 0.001 0 0.002 0 0.002 0 35.854 28.91 64.955 64.69 65.266h0.029zM552.861 938.667h422.873c0.326 0.006 0.711 0.009 1.097 0.009 36.047 0 65.268-29.222 65.268-65.268 0-0.003 0-0.006 0-0.010v0.001-99.274c0-35.744-28.976-64.72-64.72-64.72v0h-424.518c-0.001 0-0.002 0-0.002 0-35.854 0-64.955 28.91-65.266 64.69v99.303c0 36.047 29.222 65.268 65.268 65.268v0zM552.861 142.283h422.873c0.326 0.006 0.711 0.009 1.097 0.009 36.047 0 65.268-29.222 65.268-65.268 0-0.003 0-0.006 0-0.010v0.001-97.628c0-36.047-29.222-65.268-65.268-65.268h-423.97c-35.744 0-64.72 28.976-64.72 64.72v0 98.177c0 0.001 0 0.002 0 0.002 0 35.854 28.91 64.955 64.69 65.266h0.029z" />
<glyph unicode="&#xe91c;" glyph-name="square-menu" d="M688.334 938.667h271.494c35.441 0 64.171-28.731 64.171-64.171v-271.494c0-35.441-28.731-64.171-64.171-64.171h-271.494c-35.441 0-64.171 28.731-64.171 64.171v271.494c0 35.441 28.731 64.171 64.171 64.171zM64.171 938.667h271.494c35.441 0 64.171-28.731 64.171-64.171v-271.494c0-35.441-28.731-64.171-64.171-64.171h-271.494c-35.441 0-64.171 28.731-64.171 64.171v271.494c0 35.441 28.731 64.171 64.171 64.171zM64.171 314.504h271.494c35.441 0 64.171-28.731 64.171-64.171v-271.494c0-35.441-28.731-64.171-64.171-64.171h-271.494c-35.441 0-64.171 28.731-64.171 64.171v271.494c0 35.441 28.731 64.171 64.171 64.171zM688.334 314.504h271.494c35.441 0 64.171-28.731 64.171-64.171v-271.494c0-35.441-28.731-64.171-64.171-64.171h-271.494c-35.441 0-64.171 28.731-64.171 64.171v271.494c0 35.441 28.731 64.171 64.171 64.171z" />
<glyph unicode="&#xe91d;" glyph-name="hamburger-menu-thick" horiz-adv-x="1040" d="M64.789 548.833h910.893c35.782 0 64.789-29.007 64.789-64.789v-97.733c0-35.782-29.007-64.789-64.789-64.789h-910.893c-35.782 0-64.789 29.007-64.789 64.789v97.733c0 35.782 29.007 64.789 64.789 64.789zM64.789 938.667h910.893c35.782 0 64.789-29.007 64.789-64.789v-97.733c0-35.782-29.007-64.789-64.789-64.789h-910.893c-35.782 0-64.789 29.007-64.789 64.789v97.733c0 35.782 29.007 64.789 64.789 64.789zM64.789 141.979h910.893c35.782 0 64.789-29.007 64.789-64.789v-97.733c0-35.782-29.007-64.789-64.789-64.789h-910.893c-35.782 0-64.789 29.007-64.789 64.789v97.733c0 35.782 29.007 64.789 64.789 64.789z" />
<glyph unicode="&#xe91e;" glyph-name="chat-bubble-single" d="M512 938.667c-282.667 0-512-229.333-512-512 0-132.267 50.133-251.733 132.267-343.467l-38.4-168.533 179.2 59.733c71.467-38.4 152.533-59.733 238.933-59.733 282.667 0 512 229.333 512 512s-229.333 512-512 512z" />
<glyph unicode="&#xe91f;" glyph-name="star" horiz-adv-x="1077" d="M538.498 89.376l332.8-174.709-63.775 370.526 269.474 262.288-372.323 53.895-166.175 337.291-166.625-337.291-371.874-53.895 269.474-262.288-63.775-370.526 332.8 174.709z" />
<glyph unicode="&#xe920;" glyph-name="music-note" horiz-adv-x="960" d="M960.582 938.667l-657.24-212.871v-479.404c-24.488 10.433-52.975 16.498-82.879 16.498-33.009 0-64.292-7.39-92.285-20.606l1.318 0.56c-102.001-44.348-153.888-150.34-116.636-235.489s149.453-118.853 251.898-74.505c74.721 28.187 126.903 99.099 126.903 182.198 0 9.411-0.669 18.666-1.963 27.719l0.122-1.037v431.065l473.639 133.045 7.539-354.786c-25.267 11.218-54.742 17.749-85.743 17.749-33.279 0-64.8-7.527-92.953-20.971l1.303 0.56c-102.001-44.348-153.888-150.34-116.636-235.489s150.34-117.966 252.341-73.175c74.903 29.584 127.208 100.755 128.608 184.316l0.002 0.172v714.45z" />
<glyph unicode="&#xe921;" glyph-name="chat-bubbles" horiz-adv-x="1353" d="M1099.934 688.662h-376.562c-139.3 0-252.225-112.925-252.225-252.225v0-50.623c0-139.3 112.925-252.225 252.225-252.225h197.606l218.477-218.921v222.029c122.030 18.984 214.342 123.25 214.48 249.103v50.638c0 0.002 0 0.004 0 0.006 0 139.3-112.925 252.225-252.225 252.225-0.625 0-1.249-0.002-1.872-0.007l0.096 0.001zM385.443 511.482c-0.006 0.66-0.009 1.44-0.009 2.22 0 147.148 119.287 266.435 266.435 266.435 0.003 0 0.007 0 0.010 0h210.927c-38.203 93.649-128.534 158.461-234.010 158.529h-378.347c-139.3 0-252.225-112.925-252.225-252.225v0-50.623c0.138-125.867 92.45-230.133 213.062-248.935l1.419-0.182v-222.029l172.295 169.186c0 34.637 0 88.812 0 123.448v54.175z" />
<glyph unicode="&#xe922;" glyph-name="mic" horiz-adv-x="579" d="M289.107 289.574c0.018 0 0.040 0 0.062 0 86.878 0 159.037 63.021 173.254 145.843l0.148 1.043v354.39c-14.815 83.616-86.935 146.304-173.698 146.304s-158.883-62.687-173.541-145.24l-0.157-1.064v-354.39c14.365-83.864 86.524-146.886 173.403-146.886 0.186 0 0.371 0 0.557 0.001h-0.029zM545.107 500.809c-18.542 0-33.574-15.031-33.574-33.574v0-37.304c-18.27-107.065-110.367-187.543-221.26-187.543s-202.991 80.478-221.073 186.215l-0.188 1.328v37.304c0 18.671-15.136 33.807-33.807 33.807s-33.807-15.136-33.807-33.807v0-48.029c20.057-119.844 110.714-213.953 227.036-238.869l1.919-0.344v-196.78h-85.333c-19.057 0-34.506-15.449-34.506-34.506s15.449-34.506 34.506-34.506h289.574c19.057 0 34.506 15.449 34.506 34.506s-15.449 34.506-34.506 34.506h-85.333v199.111c118.307 25.136 209.026 119.308 228.72 237.509l0.235 1.704v45.231c0.002 0.14 0.003 0.304 0.003 0.469 0 18.38-14.769 33.31-33.086 33.57h-0.025z" />
<glyph unicode="&#xe923;" glyph-name="signal-bars" horiz-adv-x="1148" d="M103.825 491.303h69.217c57.341 0 103.825-46.484 103.825-103.825v-368.986c0-57.341-46.484-103.825-103.825-103.825h-69.217c-57.341 0-103.825 46.484-103.825 103.825v368.986c0 57.341 46.484 103.825 103.825 103.825zM539.483 715.24h69.217c57.341 0 103.825-46.484 103.825-103.825v-592.922c0-57.341-46.484-103.825-103.825-103.825h-69.217c-57.341 0-103.825 46.484-103.825 103.825v592.922c0 57.341 46.484 103.825 103.825 103.825zM974.632 938.667h69.217c57.341 0 103.825-46.484 103.825-103.825v-816.35c0-57.341-46.484-103.825-103.825-103.825h-69.217c-57.341 0-103.825 46.484-103.825 103.825v816.35c0 57.341 46.484 103.825 103.825 103.825z" />
<glyph unicode="&#xe924;" glyph-name="paper-clip" horiz-adv-x="1124" d="M1078.786 250.854v0l-8.467 8.965-6.475 6.973-591.191 590.693c-50.157 50.157-119.448 81.179-195.984 81.179-153.073 0-277.164-124.090-277.164-277.164 0-76.537 31.023-145.828 81.179-195.984l509.012-509.012c7.584-7.584 18.061-12.275 29.634-12.275 23.146 0 41.909 18.763 41.909 41.909 0 11.573-4.691 22.050-12.275 29.634v0l-509.012 509.012c-34.989 34.989-56.63 83.325-56.63 136.716 0 106.782 86.564 193.346 193.346 193.346 53.391 0 101.727-21.641 136.716-56.63l597.665-597.665c17.276-21.020 27.749-48.202 27.749-77.829 0-67.942-55.078-123.019-123.019-123.019-29.503 0-56.58 10.386-77.776 27.701l0.221-0.175-473.65 473.65c-11.61 10.356-18.885 25.359-18.885 42.061 0 31.083 25.197 56.28 56.28 56.28 12.979 0 24.933-4.394 34.454-11.775l-0.128 0.096 392.965-392.965c7.584-7.584 18.061-12.275 29.634-12.275 23.146 0 41.909 18.763 41.909 41.909 0 11.573-4.691 22.050-12.275 29.634v0l-386.49 386.49c-25.493 25.493-60.71 41.26-99.611 41.26-77.801 0-140.871-63.070-140.871-140.871 0-38.9 15.768-74.118 41.26-99.611l467.673-467.673 7.471-6.973 8.467-7.969c37.41-37.41 89.093-60.549 146.179-60.549 114.173 0 206.728 92.555 206.728 206.728 0 57.086-23.139 108.769-60.549 146.179v0z" />
<glyph unicode="&#xe925;" glyph-name="creditcard-and-hand" d="M742.601 755.586c-8.868 3.752-19.18 5.932-30.001 5.932-12.952 0-25.175-3.124-35.955-8.659l0.444 0.207-195.099-112.308-81.712-44.995h-364.282c-19.88 0-35.996-16.116-35.996-35.996v0-431.955c0-19.88 16.116-35.996 35.996-35.996v0h683.929c19.88 0 35.996 16.116 35.996 35.996v0 232.176c30.010-18.882 66.268-30.522 105.16-31.669l0.31-0.007c4.987-0.596 10.761-0.936 16.616-0.936 40.714 0 77.587 16.446 104.338 43.058l-0.007-0.006c9.702 7.179 21.905 11.492 35.115 11.492 2.212 0 4.397-0.121 6.547-0.356l-0.266 0.024v238.655zM712.725 139.69h-665.211v50.395h665.211v-50.395zM712.725 514.77c-8.266-2.348-17.786-3.782-27.614-3.958l-0.102-0.001h-152.624c-38.369 0-69.473-31.104-69.473-69.473s31.104-69.473 69.473-69.473v0h179.982v-46.795h-664.851v215.977h665.211v-26.638z" />
<glyph unicode="&#xe926;" glyph-name="info-circle-hallow" d="M508.736 560.962c2.379-0.255 5.138-0.4 7.932-0.4 43.523 0 78.805 35.282 78.805 78.805 0 0.305-0.002 0.609-0.005 0.913v-0.046c-2.279 44.788-39.149 80.239-84.298 80.239-0.856 0-1.709-0.013-2.559-0.038l0.125 0.003c-0.704 0.022-1.532 0.034-2.363 0.034-44.775 0-81.223-35.654-82.501-80.12l-0.003-0.118c3.023-44.4 39.78-79.272 84.682-79.272 0.065 0 0.13 0 0.195 0h-0.010zM584.743 525.523h-182.791v-102.12h33.107v-187.92h-33.107v-103.519h220.561v103.519h-37.77v290.040zM512 938.667c-283.285 0-512.933-229.648-512.933-512.933s229.648-512.933 512.933-512.933c283.285 0 512.933 229.648 512.933 512.933v0c0 283.285-229.648 512.933-512.933 512.933v0zM512 11.658c-229.203 0-415.009 185.806-415.009 415.009s185.806 415.009 415.009 415.009c229.203 0 415.009-185.806 415.009-415.009v0c0-229.203-185.806-415.009-415.009-415.009v0z" />
<glyph unicode="&#xe927;" glyph-name="question-circle" d="M513.399 938.667c-283.285 0-512.933-229.648-512.933-512.933s229.648-512.933 512.933-512.933c283.285 0 512.933 229.648 512.933 512.933v0c0 283.285-229.648 512.933-512.933 512.933v0zM505.472 99.323c-47.128 0-85.333 38.205-85.333 85.333s38.205 85.333 85.333 85.333c47.128 0 85.333-38.205 85.333-85.333v0c0-0.003 0-0.007 0-0.011 0-47.128-38.205-85.333-85.333-85.333-0.492 0-0.983 0.004-1.473 0.012l0.074-0.001zM580.546 350.66v-46.63h-146.419v69.013c0 79.738 124.969 124.503 124.969 172.066-1.766 29.991-26.519 53.644-56.796 53.644-0.524 0-1.047-0.007-1.568-0.021l0.077 0.002c-38.182-7.484-69.727-31.069-87.798-63.239l-0.333-0.645-93.26 85.333c43.183 65.434 114.658 109.177 196.591 113.749l0.655 0.029c1.741 0.060 3.787 0.094 5.841 0.094 99.922 0 180.925-81.003 180.925-180.925 0-3.314-0.089-6.606-0.265-9.876l0.020 0.456c0.933-113.778-124.036-141.29-124.036-193.049z" />
<glyph unicode="&#xe928;" glyph-name="cloud" horiz-adv-x="1042" d="M822.561 511.162c-10.231-0.051-20.212-0.954-29.926-2.648l1.064 0.152c-7.938 80.451-75.252 142.778-157.12 142.778-26 0-50.525-6.286-72.152-17.42l0.886 0.414c-31.32 50.71-86.595 83.996-149.644 83.996-96.816 0-175.3-78.483-175.3-175.3 0-0.095 0-0.186 0-0.281v0.013c0-2.493 0-4.632 0-7.126-104.778-2.198-188.877-87.656-188.877-192.757 0-106.482 86.319-192.798 192.798-192.798 1.379 0 2.752 0.013 4.125 0.042l-0.206-0.004h1.782c160.333-15.323 524.824 6.769 542.995 7.482 11.293 0.517 21.836 1.663 32.174 3.423l-1.534-0.215c93.123 4.617 166.881 81.244 166.881 175.096 0 94.23-74.351 171.096-167.587 175.131l-0.365 0.013z" />
<glyph unicode="&#xe929;" glyph-name="heart" horiz-adv-x="1121" d="M1095.288 764.593c-102.234 243.152-442.094 213.863-535.486 24.868-94.498 188.443-434.357 216.073-535.486-27.631-67.419-162.47-28.736-376.885 538.249-846.61 563.67 472.488 601.248 687.456 532.723 849.373z" />
<glyph unicode="&#xe92a;" glyph-name="refresh" horiz-adv-x="1029" d="M534.497 771.544c85.773-7.352 161.898-43.677 219.664-99.013l-0.13 0.123-49.445-36.589c-9.872-4.673-16.579-14.554-16.579-26.001 0-13.475 9.294-24.78 21.821-27.853l0.197-0.041 276.89-128.062c4.555-3.296 10.253-5.272 16.413-5.272 15.565 0 28.183 12.618 28.183 28.183 0 2.758-0.396 5.424-1.135 7.944l0.050-0.199-34.611 304.085c0.325 1.593 0.512 3.424 0.512 5.298 0 15.292-12.397 27.689-27.689 27.689-9.096 0-17.167-4.386-22.215-11.158l-0.052-0.073-56.367-40.050c-96.827 103.533-234.256 168.055-386.755 168.055-233.85 0-432.264-151.722-502.174-362.098l-1.076-3.736 151.301-68.234c62.795 189.373 194.318 283.813 383.197 267.001zM877.644 346.814c-62.795-187.395-194.318-281.835-383.197-265.518-85.773 7.352-161.898 43.677-219.664 99.013l0.13-0.123 49.445 36.589c9.872 4.673 16.579 14.554 16.579 26.001 0 13.475-9.294 24.78-21.821 27.853l-0.197 0.041-276.89 128.062c-4.555 3.296-10.253 5.272-16.413 5.272-15.565 0-28.183-12.618-28.183-28.183 0-2.758 0.396-5.424 1.135-7.944l-0.050 0.199 34.611-304.085c-0.325-1.593-0.512-3.424-0.512-5.298 0-15.292 12.397-27.689 27.689-27.689 9.096 0 17.167 4.386 22.215 11.158l0.052 0.073 56.367 40.050c96.827-103.533 234.256-168.055 386.755-168.055 233.85 0 432.264 151.722 502.174 362.098l1.076 3.736z" />
<glyph unicode="&#xe92b;" glyph-name="close-thick" d="M1024 734.099l-205.148 204.568-307.142-307.142-307.142 307.142-204.568-204.568 307.142-307.142-307.142-307.142 204.568-205.148 307.142 307.142 307.142-307.142 205.148 205.148-307.142 307.142 307.142 307.142z" />
<glyph unicode="&#xe92c;" glyph-name="check2" horiz-adv-x="1397" d="M1155.156 938.667l-540.017-540.017-373.147 373.147-241.992-241.992 615.139-615.139 782.008 782.008-241.992 241.992z" />
<glyph unicode="&#xe92d;" glyph-name="phone-call" d="M556.622 586.293c3.353 0.38 7.24 0.597 11.178 0.597 57.926 0 104.884-46.958 104.884-104.884 0-3.937-0.217-7.824-0.64-11.649l0.042 0.471c-0.164-1.73-0.257-3.741-0.257-5.773 0-33.808 25.865-61.575 58.887-64.591l0.253-0.019h5.98c33.639 0.098 61.248 25.789 64.382 58.62l0.020 0.262c0.702 6.813 1.103 14.722 1.103 22.724 0 129.571-105.038 234.609-234.609 234.609-8.002 0-15.911-0.401-23.707-1.183l0.983 0.080c-33.276-3.049-59.138-30.82-59.138-64.633 0-35.837 29.051-64.888 64.888-64.888 2.024 0 4.027 0.093 6.004 0.274l-0.254-0.019zM890.135 804.342c-82.288 82.754-196.133 134.054-321.96 134.325h-0.052c-35.823 0-64.863-29.040-64.863-64.863s29.040-64.863 64.863-64.863v0c179.606-1.293 324.859-146.546 326.152-326.029l0.001-0.124c0.261-35.624 29.2-64.403 64.861-64.403 0.001 0 0.001 0 0.002 0v0c35.625 0.26 64.404 29.199 64.404 64.861 0 0.162-0.001 0.324-0.002 0.487v-0.025c-0.455 125.246-51.347 238.517-133.408 320.635l0.003-0.003zM953.157 129.495c-70.383 46.002-138.005 95.684-203.328 148.126-9.412 8.052-21.729 12.953-35.191 12.953s-25.779-4.9-35.266-13.015l0.074 0.062c-21.683-23.923-42.661-49.864-62.143-76.953l-1.8-2.63c-19.781-20.701-92.004-23.001-225.869 106.264s-126.965 206.088-105.804 225.869c29.686 21.482 55.625 42.603 80.322 65.065l-0.739-0.662c8.052 9.412 12.953 21.729 12.953 35.191s-4.9 25.779-13.015 35.266l0.062-0.074c-52.442 65.323-102.124 132.945-148.126 203.328-11.133 17.773-30.609 29.417-52.805 29.417-5.929 0-11.665-0.831-17.096-2.383l0.438 0.107c-43.274-18.257-80.424-42.426-112.51-72.005l0.266 0.242c-75.903-81.883-38.181-328.453 253.93-620.564s538.681-329.833 620.564-253.93c29.43 31.775 53.612 68.94 70.832 109.76l0.93 2.485c1.33 4.779 2.095 10.267 2.095 15.933 0 21.856-11.375 41.055-28.527 52.001l-0.249 0.148z" />
<glyph unicode="&#xe92e;" glyph-name="download-rounded-arrow" horiz-adv-x="954" d="M427.5 175.547c7.293-20.721 26.698-35.308 49.51-35.308s42.217 14.586 49.397 34.941l0.113 0.367 309.914 333.24c7.738 9.071 12.446 20.931 12.446 33.891 0 28.921-23.445 52.366-52.366 52.366-2.712 0-5.376-0.206-7.977-0.604l0.291 0.037h-116.158v295.156c0 26.292-21.314 47.606-47.606 47.606v0h-296.584c-26.292 0-47.606-21.314-47.606-47.606v0-296.584h-111.874c-2.31 0.361-4.974 0.567-7.685 0.567-28.921 0-52.366-23.445-52.366-52.366 0-12.96 4.708-24.82 12.507-33.964l-0.061 0.073zM835.005 203.158v-175.665h-715.515v175.665h-119.49v-288.491h954.496v288.491h-119.49z" />
<glyph unicode="&#xe92f;" glyph-name="locked" horiz-adv-x="799" d="M712.163 491.022v134.861c0 172.615-139.932 312.547-312.547 312.547s-312.547-139.932-312.547-312.547v0-134.861c-48.211-1.315-86.822-40.589-87.068-88.937v-396.564c0.267-49.024 39.937-88.694 88.936-88.961h621.334c49.024 0.267 88.694 39.937 88.961 88.936v398.931c-1.292 47.461-39.565 85.569-86.971 86.594l-0.097 0.002zM498.75 17.824h-198.27l52.998 141.959c-43.041 18.485-72.636 60.509-72.636 109.446 0 65.596 53.176 118.773 118.773 118.773s118.773-53.176 118.773-118.773c0-48.936-29.595-90.961-71.864-109.15l-0.772-0.295zM587.712 491.022h-377.612v134.861c-0.904 6.947-1.42 14.983-1.42 23.138 0 104.536 84.743 189.279 189.279 189.279s189.279-84.743 189.279-189.279c0-8.156-0.516-16.191-1.517-24.075l0.097 0.936v-134.861z" />
<glyph unicode="&#xe930;" glyph-name="unlocked" horiz-adv-x="799" d="M710.27 491.495h-498.277v134.861c-0.904 6.947-1.42 14.983-1.42 23.138 0 104.536 84.743 189.279 189.279 189.279s189.279-84.743 189.279-189.279c0-8.156-0.516-16.191-1.517-24.075l0.097 0.936h124.451c0 172.615-139.932 312.547-312.547 312.547s-312.547-139.932-312.547-312.547v0-134.861c-48.211-1.315-86.822-40.589-87.068-88.937v-398.93c0.267-49.024 39.937-88.694 88.936-88.961h621.334c49.024 0.267 88.694 39.937 88.961 88.936v398.931c-0.267 49.024-39.937 88.694-88.936 88.961h-0.025zM498.75 18.297h-198.27l52.998 141.959c-43.041 18.485-72.636 60.509-72.636 109.446 0 65.596 53.176 118.773 118.773 118.773s118.773-53.176 118.773-118.773c0-48.936-29.595-90.961-71.864-109.15l-0.772-0.295z" />
<glyph unicode="&#xe931;" glyph-name="laptop" horiz-adv-x="1356" d="M1355.941-44.756v65.937h-1355.941v-65.937s0-10.708 64.81-16.907l103.133-23.67h1025.127l103.133 23.67c64.81 6.199 59.738 16.907 59.738 16.907zM1206.032 913.87c0.004 0.17 0.007 0.37 0.007 0.57 0 13.695-11.102 24.797-24.797 24.797-0.2 0-0.4-0.002-0.6-0.007l0.030 0.001h-1008.22c-14.006 0-25.36-11.354-25.36-25.36v-810.972h1058.378v810.972zM1067.395 207.158h-782.23v616.542h781.103v-617.105z" />
<glyph unicode="&#xe932;" glyph-name="settings" horiz-adv-x="1283" d="M662.33 797.123l-102.986-9.762c-23.351 19.625-50.277 36.052-79.483 48.070l-2.027 0.738-40.511 97.617c-20.325 3.814-43.707 5.995-67.6 5.995s-47.274-2.181-69.959-6.356l2.36 0.361-42.951-93.712c-31.788-12.655-59.212-29.101-83.483-49.218l0.508 0.409-102.986 12.202c-28.753-32.948-52.195-71.453-68.42-113.544l-0.888-2.62 60.034-84.439c-3.497-17.152-5.498-36.865-5.498-57.047 0-12.405 0.756-24.634 2.225-36.642l-0.144 1.441-62.475-82.486c15.865-45.344 38.234-84.545 66.419-118.776l-0.528 0.66 102.986 9.762c23.353-19.617 50.279-36.043 79.481-48.068l2.029-0.74 40.511-97.617c21.868-4.346 47.009-6.833 72.731-6.833 0.169 0 0.339 0 0.508 0h-0.027c0.062 0 0.136 0 0.209 0 21.811 0 43.207 1.775 64.052 5.188l-2.275-0.307 42.951 94.2c31.799 12.594 59.23 29.046 83.467 49.207l-0.493-0.398 102.498-12.69c28.673 32.831 52.101 71.162 68.409 113.052l0.899 2.624-60.034 84.439c2.384 14.305 3.747 30.787 3.747 47.588s-1.363 33.284-3.983 49.344l0.236-1.755 62.475 82.486c-14.714 45.032-35.81 84.099-62.629 118.483l0.642-0.855zM364.111 364.192c-104.59 0-189.377 84.787-189.377 189.377s84.787 189.377 189.377 189.377c104.59 0 189.377-84.787 189.377-189.377v0c0-104.59-84.787-189.377-189.377-189.377v0zM1280.732 210.446l-65.403 30.261c-8.248 22.216-19.132 41.429-32.565 58.547l0.351-0.465 9.274 71.26c-22.821 20.219-49.513 36.717-78.731 48.185l-1.803 0.623-59.058-41.487c-9.977 1.673-21.472 2.629-33.19 2.629s-23.213-0.956-34.411-2.794l1.221 0.165-57.106 43.439c-31.647-10.877-59.030-26.297-82.976-45.778l0.49 0.386 6.345-71.748c-7.394-8.765-14.326-18.495-20.436-28.771l-0.552-1.002c-4.446-7.461-8.864-16.288-12.661-25.438l-0.517-1.407-66.379-27.821c-2.669-14.161-4.195-30.453-4.195-47.1s1.527-32.939 4.447-48.741l-0.252 1.641 65.403-30.261c8.204-22.221 19.093-41.44 32.557-58.534l-0.343 0.452-9.274-71.748c12.228-10.744 25.799-20.585 40.246-29.097l1.241-0.676c10.97-6.483 23.83-12.718 37.207-17.918l1.84-0.629 59.058 41.487c9.977-1.684 21.471-2.647 33.19-2.647s23.213 0.963 34.407 2.813l-1.217-0.166 57.594-43.439c31.649 10.866 59.033 26.288 82.974 45.777l-0.488-0.385-6.345 71.748c7.425 8.766 14.359 18.498 20.448 28.788l0.54 0.985c4.479 7.485 8.898 16.313 12.677 25.472l0.501 1.372 66.379 27.821c2.501 13.75 3.932 29.575 3.932 45.733 0 17.135-1.608 33.894-4.682 50.135l0.263-1.669zM1129.914 102.091c-23.234-39.566-65.574-65.708-114.021-65.708-72.782 0-131.783 59.001-131.783 131.783s59.001 131.783 131.783 131.783c23.985 0 46.474-6.408 65.848-17.605l-0.635 0.339c39.343-23.404 65.294-65.702 65.294-114.060 0-24.511-6.667-47.465-18.287-67.147l0.337 0.616z" />
<glyph unicode="&#xe933;" glyph-name="sale-tag" horiz-adv-x="779" d="M724.794 339.361l-298.313 298.313c-89.315 89.315-188.009 59.841-280.003-17.863 0 3.573-3.573 6.699-4.912 10.271-6.699 62.967 31.707 106.285 104.052 116.11 6.605 0.449 14.316 0.705 22.087 0.705 25.23 0 49.831-2.696 73.529-7.816l-2.282 0.413c69.666-10.718 148.71-23.222 213.464 35.28 18.23 12.649 30.017 33.472 30.017 57.048 0 14.362-4.374 27.703-11.863 38.763l0.155-0.244c-49.123 72.792-255.888 89.315-374.678 31.26-80.426-36.998-135.26-116.882-135.26-209.573 0-29.495 5.552-57.694 15.669-83.607l-0.538 1.565c30.47-65.164 73.528-119.803 126.435-162.787l0.839-0.66c5.742-4.459 13.051-7.148 20.989-7.148 18.993 0 34.389 15.397 34.389 34.389 0 11.055-5.216 20.892-13.322 27.183l-0.078 0.058c-15.197 12.651-28.899 25.645-41.722 39.466l-0.256 0.279c6.527 2.25 14.050 3.556 21.875 3.573h0.008c41.188 0 74.578-33.39 74.578-74.578s-33.39-74.578-74.578-74.578v0c-16.616 0.173-32.035 5.146-44.98 13.595l0.322-0.197c-46.279 34.893-83.747 78.927-110.193 129.624l-1.005 2.116c-72.792-89.315-99.14-183.99-12.504-271.072l296.080-301.439c101.819-102.266 215.25-49.123 317.516 52.249s156.302 214.803 54.482 317.069zM226.414 841.76c39.301 17.843 85.226 28.242 133.579 28.242 2.965 0 5.921-0.039 8.867-0.117l-0.435 0.009c0.88 0.008 1.919 0.012 2.959 0.012 37.841 0 74.307-5.883 108.535-16.785l-2.53 0.696c25.901-8.932 37.512-17.863 29.027-25.901-39.299-37.066-94.228-28.134-156.748-18.31-23.982 5.143-51.535 8.088-79.775 8.088-11.689 0-23.261-0.505-34.694-1.493l1.486 0.104c-26.074-3.388-49.733-10.612-71.491-21.145l1.379 0.602c16.407 18.557 36.312 33.604 58.737 44.189l1.104 0.469z" />
<glyph unicode="&#xe934;" glyph-name="globe" d="M512 938.667c-282.77 0-512-229.23-512-512s229.23-512 512-512c282.77 0 512 229.23 512 512v0c-0.28 282.658-229.343 511.72-511.974 512h-0.026zM337.89 798.494c-24.692-38.059-45.282-81.944-59.523-128.6l-0.972-3.704c-29.51 9.837-56.069 19.673-76.726 28.526 37.634 43.179 83.466 78.153 135.204 102.706l2.509 1.071zM171.159 655.862c23.608-10.329 56.069-23.116 93.449-35.412-12.217-50.802-19.854-109.502-21.134-169.766l-0.015-0.9h-142.14c4.701 77.473 30.321 148.138 71.226 207.449l-0.893-1.37zM101.318 402.567h142.14c1.299-61.167 8.936-119.866 22.283-176.359l-1.134 5.692c-37.871-12.296-69.841-25.084-93.449-35.412-39.776 58.14-65.084 129.020-69.303 205.521l-0.046 1.049zM199.685 156.65c20.657 8.853 49.183 18.69 76.726 28.526 15.206-50.359 35.797-94.245 61.736-134.35l-1.24 2.046c-53.545 26.267-98.712 61.686-135.258 104.663l-0.489 0.589zM487.408-10.082c-68.857 15.247-129.353 98.367-164.765 209.522 48.492 14.398 104.778 24.239 162.831 27.457l1.933 0.086v-237.064zM487.408 274.198c-64.488-3.202-125.19-13.589-183.156-30.411l5.604 1.393c-11.369 46.575-18.635 100.486-20.142 155.835l-0.023 1.060h196.734v-127.877zM487.408 449.291h-196.734c1.523 56.406 8.789 110.318 21.242 162.212l-1.077-5.316c52.362-15.429 113.065-25.816 175.679-28.944l1.873-0.075v-127.877zM487.408 624.385c-59.973 3.276-116.262 13.119-170.030 28.864l5.265-1.322c35.412 113.122 98.367 194.275 164.765 209.522v-236.573zM921.207 449.291h-142.14c-1.276 61.154-8.914 119.856-22.281 176.341l1.133-5.675c37.871 12.296 69.841 25.084 93.449 35.412 40.292-57.726 66.232-128.188 71.252-204.365l0.064-1.222zM822.84 695.209c-20.657-8.853-49.183-18.69-76.726-28.526-15.199 50.358-35.79 94.245-61.734 134.347l1.238-2.043c54.28-25.749 100.118-60.888 137.277-103.754l0.437-0.515zM535.116 862.433c68.857-15.247 129.844-98.367 165.256-209.522-48.652-14.436-105.113-24.28-163.348-27.46l-1.909-0.083v236.573zM535.116 578.644c64.491 3.207 125.193 13.594 183.161 30.412l-5.608-1.393c11.327-46.553 18.59-100.461 20.141-155.797l0.024-1.098h-196.734v127.877zM535.116 403.551h196.734c-1.575-56.435-8.839-110.342-21.246-162.252l1.081 5.357c-52.36 15.425-113.062 25.811-175.675 28.943l-1.877 0.075v127.877zM535.116-8.607v236.573c60.145-3.267 116.605-13.111 170.544-28.866l-5.287 1.323c-34.92-113.122-95.416-194.275-164.765-209.522zM685.618 54.84c24.719 38.058 45.312 81.947 59.529 128.614l0.967 3.689c29.51-9.837 56.069-19.673 76.726-28.526-37.336-43.293-82.837-78.412-134.258-103.195l-2.472-1.074zM852.841 196.98c-23.608 10.329-55.577 23.116-93.449 35.412 12.217 50.802 19.854 109.502 21.134 169.766l0.015 0.9h142.14c-4.517-77.427-29.976-148.11-70.738-207.462l0.898 1.384z" />
<glyph unicode="&#xe935;" glyph-name="umbrella" horiz-adv-x="1098" d="M590.102 386.17h-82.923v-278.177c0.020-0.822 0.031-1.79 0.031-2.761 0-29.641-10.573-56.813-28.154-77.95l0.16 0.198c-19.676-18.128-46.057-29.243-75.034-29.243-2.946 0-5.865 0.115-8.753 0.34l0.382-0.024h-67.495v-83.405h68.46c3.251-0.199 7.052-0.313 10.879-0.313 52.21 0 99.488 21.118 133.758 55.278l-0.005-0.005c30.082 35.060 48.395 80.985 48.395 131.187 0 3.033-0.067 6.051-0.199 9.052l0.015-0.427v276.249zM899.616 711.594c-88.073 64.826-197.926 104.86-316.973 107.977l-0.737 0.015-24.588 119.081h-16.874l-23.141-119.081c-120.29-2.851-230.689-42.925-320.723-109.091l1.567 1.099c-120.002-78.505-198.182-212.267-198.182-364.288 0-1.93 0.013-3.858 0.038-5.782l-0.003 0.292c0-16.508 13.383-29.891 29.891-29.891s29.891 13.383 29.891 29.891v0c0 8.196 0 16.392 0 24.588 30.581 19.734 66.697 33.817 105.484 39.818l1.544 0.197c15.101 2.674 32.486 4.202 50.228 4.202 29.325 0 57.675-4.176 84.487-11.965l-2.136 0.531c0-7.232 0-14.945 0-22.177 0-16.109 13.059-29.168 29.168-29.168s29.168 13.059 29.168 29.168v0c0 10.124 0 20.249 0 29.891 13.499 13.017 57.371 40.497 192.844 40.497 140.294 0 180.309-30.373 192.844-42.426 0-9.16 0-18.32 0-27.962 0-16.109 13.059-29.168 29.168-29.168s29.168 13.059 29.168 29.168v0c0 7.714 0 14.945 0 22.177 24.668 7.265 53.008 11.445 82.325 11.445 17.752 0 35.146-1.533 52.057-4.473l-1.802 0.259c40.33-6.228 76.441-20.308 108.127-40.676l-1.099 0.661c0-8.196 0-16.392 0-24.588 0-16.508 13.383-29.891 29.891-29.891s29.891 13.383 29.891 29.891v0c0.008 0.993 0.013 2.167 0.013 3.342 0 153.421-79.626 288.244-199.807 365.397l-1.727 1.038z" />
<glyph unicode="&#xe936;" glyph-name="headset" horiz-adv-x="1045" d="M994.936 483.498c-4.81 32.698-24.276 60.038-51.39 75.507l-0.51 0.268c-10.899 207.603-144.284 379.394-423.509 379.394s-415.205-173.867-423.509-384.065c-24.012-16.179-40.734-41.604-45.085-71.057l-0.069-0.566c-28.545-12.975-51.901-74.218-51.901-148.436s21.798-135.461 51.901-148.436c4.044-54.148 48.971-96.548 103.801-96.548 57.478 0 104.074 46.595 104.074 104.074 0 2.648-0.099 5.273-0.293 7.872l0.021-0.346v266.25c0 57.328-46.473 103.801-103.801 103.801v0h-3.633c25.95 132.866 175.943 228.882 369.014 228.882s343.063-96.016 369.014-228.882c-56.428-1.165-101.725-47.183-101.725-103.781 0-0.007 0-0.015 0-0.022v0.001-266.769c0.392-44.115 28.244-81.626 67.274-96.299l0.715-0.236-5.19-5.709c-29.508-29.563-65.65-52.494-106.004-66.369l-1.949-0.583-23.874-6.747c-12.082 30.829-41.57 52.263-76.064 52.263-45.002 0-81.484-36.482-81.484-81.484s36.482-81.484 81.484-81.484c38.992 0 71.587 27.387 79.598 63.975l0.099 0.539c66.031 5.775 125.563 29.637 174.745 66.544l-0.877-0.63c41.004 29.721 72.782 69.846 91.741 116.544l0.642 1.79c2.924 6.726 5.27 14.572 6.661 22.742l0.086 0.613c28.545 12.975 51.901 74.218 51.901 148.436s-23.874 135.98-51.901 148.955z" />
<glyph unicode="&#xe937;" glyph-name="cut" horiz-adv-x="1284" d="M496.017 311.481h365.95l-199.509 115.186 496.017 287.69c-31.101 52.918-87.747 87.878-152.559 87.878-22.833 0-44.653-4.339-64.68-12.238l1.195 0.416-411.143-241.395c-68.891-24.25-122.351 14.881-94.794 76.056v0c11.352 26.045 17.956 56.389 17.956 88.275 0 83.104-44.862 155.729-111.689 194.98l-1.062 0.576c-33.163 20.037-73.219 31.893-116.044 31.893-125.405 0-227.066-101.661-227.066-227.066 0-123.381 98.406-223.778 221.013-226.987l0.297-0.006c94.243 0 103.061-59.522 103.061-59.522s-8.818-58.42-104.715-59.522c-38.283-1.28-73.812-11.959-104.696-29.787l1.083 0.577c-64.396-40.813-106.524-111.701-106.524-192.428 0-125.405 101.661-227.066 227.066-227.066 38.984 0 75.674 9.824 107.728 27.132l-1.204-0.595c67.818 39.979 112.605 112.654 112.605 195.789 0 31.793-6.55 62.057-18.374 89.514l0.564-1.471c-4.947 8.102-7.876 17.905-7.876 28.392 0 30.438 24.675 55.113 55.113 55.113 4.356 0 8.594-0.505 12.658-1.461l-0.373 0.074zM169.748 612.398c-34.721 20.275-57.68 57.359-57.68 99.804 0 63.616 51.571 115.186 115.186 115.186s115.186-51.571 115.186-115.186c0-21.337-5.802-41.32-15.914-58.455l0.293 0.537c-20.298-34.624-57.329-57.507-99.704-57.507-21.338 0-41.32 5.802-58.456 15.914l0.537-0.293zM284.934 41.978c-16.599-9.819-36.581-15.62-57.918-15.62-63.616 0-115.186 51.571-115.186 115.186s51.571 115.186 115.186 115.186c42.446 0 79.529-22.958 99.51-57.135l0.295-0.545c9.463-16.407 15.046-36.084 15.046-57.064 0-42.456-22.861-79.574-56.944-99.713l-0.538-0.294zM809.61 242.589h165.339c14.915 0 27.005-12.091 27.005-27.005v0-55.113c0-15.219-12.337-27.557-27.557-27.557v0h-165.339c-14.915 0-27.005 12.091-27.005 27.005v0 55.113c0 15.219 12.337 27.557 27.557 27.557v0zM1092.34 242.589h165.339c14.915 0 27.005-12.091 27.005-27.005v0-55.113c0-15.219-12.337-27.557-27.557-27.557v0h-165.339c-15.219 0-27.557 12.337-27.557 27.557v0 55.113c0.306 14.983 12.524 27.011 27.551 27.011 0.196 0 0.391-0.002 0.586-0.006h-0.029zM526.881 242.589h165.339c14.915 0 27.005-12.091 27.005-27.005v-55.113c0-15.219-12.337-27.557-27.557-27.557v0h-165.339c-15.219 0-27.557 12.337-27.557 27.557v0 55.113c0.306 14.983 12.524 27.011 27.551 27.011 0.196 0 0.391-0.002 0.586-0.006h-0.029z" />
<glyph unicode="&#xe938;" glyph-name="shopping-bag" horiz-adv-x="846" d="M822.397 654.566h-117.559v168.604l-141.277 114.981v-283.585h-281.007v283.585l-141.277-114.981v-168.604h-117.559c-13.099 0-23.718-10.619-23.718-23.718v0-633.684c0-45.562 36.935-82.497 82.497-82.497v0h681.12c45.562 0 82.497 36.935 82.497 82.497v633.684c0 13.099-10.619 23.718-23.718 23.718v0zM337.208 938.667h171.182v-141.277h-171.182v141.277z" />
<glyph unicode="&#xe939;" glyph-name="user-group" horiz-adv-x="1047" d="M1006.101 241.421c-40.901 29.052-103.974 13.761-143.347 65.748 0 0-14.526 16.437 18.348 56.574 20.284 30.799 32.358 68.569 32.358 109.159 0 15.505-1.762 30.599-5.096 45.092l0.261-1.348c-11.15 47.449-53.118 82.232-103.21 82.232s-92.059-34.783-103.067-81.514l-0.142-0.718c-3.073-13.145-4.835-28.239-4.835-43.745 0-40.59 12.073-78.36 32.824-109.915l-0.467 0.756c11.182-11.522 18.878-26.483 21.354-43.147l0.053-0.43c17.045-5.427 31.874-12.832 45.273-22.149l-0.548 0.361c61.926-43.96 58.486-128.821 56.192-152.903h185.013s9.939 66.513-30.963 95.947zM250.377 297.995c13.168 9.22 28.392 16.769 44.701 21.856l1.17 0.314c2.609 16.952 10.292 31.77 21.424 43.213l-0.018-0.018c20.284 30.799 32.358 68.569 32.358 109.159 0 15.505-1.762 30.599-5.096 45.092l0.261-1.348c-11.15 47.449-53.118 82.232-103.21 82.232s-92.059-34.783-103.067-81.514l-0.142-0.718c-3.073-13.145-4.835-28.239-4.835-43.745 0-40.59 12.073-78.36 32.824-109.915l-0.467 0.756c32.874-40.137 18.348-56.574 18.348-56.574-38.226-51.987-102.063-38.226-143.347-65.748s-30.963-95.947-30.963-95.947h183.866c-2.293 24.082-5.734 108.944 56.192 152.903zM771.395 263.974c-13.67 9.168-29.66 16.176-46.829 20.078l-0.953 0.182c-44.342 11.468-94.418 14.526-129.586 61.161 0 0-17.966 20.26 22.553 69.953s43.96 128.439 34.021 191.129c-13.677 58.702-65.551 101.767-127.483 101.767s-113.806-43.065-127.309-100.883l-0.174-0.884c-10.321-61.161-6.88-139.906 34.021-191.129s22.553-69.953 22.553-69.953c-34.785-46.253-84.479-49.311-128.439-60.779-18.416-4.159-34.661-11.299-49.064-20.969l0.518 0.327c-50.84-35.932-38.226-118.5-38.226-118.5h573.387s11.468 82.568-38.99 118.5z" />
<glyph unicode="&#xe93a;" glyph-name="email2" horiz-adv-x="1510" d="M1487.238 678.139l-703.565-417.959c-8.058-4.889-17.797-7.782-28.212-7.782s-20.154 2.893-28.458 7.92l0.246-0.138-703.565 417.959c-2.359 1.557-5.253 2.484-8.364 2.484-8.464 0-15.325-6.861-15.325-15.325 0-0.139 0.002-0.277 0.005-0.414v0.020-631.118c0-65.403 53.019-118.422 118.422-118.422v0h1272.686c0.001 0 0.001 0 0.002 0 65.542 0 118.721 52.935 119.116 118.384v631.156c-0.021 8.448-6.874 15.289-15.325 15.289-2.821 0-5.465-0.762-7.735-2.092l0.072 0.039zM723.766 392.534c8.957-5.416 19.778-8.621 31.347-8.621s22.39 3.205 31.622 8.775l-0.275-0.154 716.103 422.835c4.645 2.691 7.72 7.639 7.72 13.305 0 0.466-0.021 0.927-0.062 1.382l0.004-0.059c-5.536 61.054-56.413 108.542-118.409 108.669h-1272.699c-62.008-0.128-112.885-47.615-118.388-108.207l-0.034-0.463c-0.018-0.282-0.028-0.611-0.028-0.943 0-5.768 3.048-10.824 7.621-13.646l0.069-0.040z" />
<glyph unicode="&#xe93b;" glyph-name="search" horiz-adv-x="1101" d="M1065.573 103.932l-225.368 206.222c26.459 55.071 41.917 119.728 41.917 187.995 0 244.403-198.127 442.53-442.53 442.53s-442.53-198.127-442.53-442.53c0-244.403 198.127-442.53 442.53-442.53 98.679 0 189.814 32.298 263.41 86.9l-1.191-0.844 218.803-198.564c20.211-24.251 50.425-39.573 84.218-39.573 60.421 0 109.402 48.981 109.402 109.402 0 37.78-19.151 71.088-48.274 90.745l-0.388 0.247zM441.436 177.778c-0.163 0-0.355 0-0.547 0-176.731 0-320 143.269-320 320s143.269 320 320 320c176.731 0 320-143.269 320-320v0c0-0.163 0-0.355 0-0.547 0-176.539-142.958-319.689-319.424-319.999h-0.029z" />
<glyph unicode="&#xe93c;" glyph-name="user" horiz-adv-x="1052" d="M978.972 131.205c-92.585 65.771-234.751 30.862-323.289 148.237 0 0-32.885 36.933 41.486 128s80.443 234.751 61.723 346.055c-25.207 106.929-119.815 185.294-232.727 185.294s-207.521-78.365-232.405-183.674l-0.323-1.62c-18.719-111.304-12.142-252.964 61.723-346.055s41.486-128 41.486-128c-88.538-117.375-230.704-82.466-323.289-148.237s-71.336-217.043-71.336-217.043h1046.767s22.767 151.779-69.818 217.043z" />
<glyph unicode="&#xe93d;" glyph-name="replay, reload" horiz-adv-x="1013" d="M695.328 609.995l277.498-100.237c3.967-2.36 8.747-3.754 13.853-3.754 15.151 0 27.433 12.282 27.433 27.433 0 3.432-0.63 6.718-1.782 9.746l0.063-0.188-58.56 290.16c0.010 0.268 0.015 0.584 0.015 0.901 0 14.86-12.046 26.906-26.906 26.906-8.843 0-16.69-4.266-21.594-10.853l-0.051-0.072-52.756-43.26c-90.256 81.415-210.399 131.224-342.176 131.224-282.624 0-511.736-229.112-511.736-511.736s229.112-511.736 511.736-511.736c220.415 0 408.283 139.352 480.308 334.76l1.145 3.548-163.545 24.268c-57.306-121.644-178.892-204.331-319.791-204.331-194.632 0-352.412 157.78-352.412 352.412s157.78 352.412 352.412 352.412c84.288 0 161.665-29.591 222.309-78.951l-0.644 0.508-45.37-39.567c-7.228-5.013-11.902-13.267-11.902-22.613 0-13.39 9.594-24.54 22.282-26.95l0.171-0.027z" />
<glyph unicode="&#xe93e;" glyph-name="minus" horiz-adv-x="1049" d="M623.722 526.022l-495.953-0.28v-198.152l793.462-0.28v198.714h-297.511z" />
<glyph unicode="&#xe93f;" glyph-name="plus2" d="M623.845 874.667l-223.998-0.332v-335.831h-335.847v-223.683h335.847v-335.831l223.998-0.315v335.831h335.831v224.313h-335.831v335.847z" />
<glyph unicode="&#xe940;" glyph-name="google-plus" horiz-adv-x="1317" d="M821.143 416.953c0-239.429-160.571-409.143-402.286-409.143-231.429 0-418.857 187.429-418.857 418.857s187.429 418.857 418.857 418.857c113.143 0 207.429-41.143 280.571-109.714l-113.714-109.143c-30.857 29.714-85.143 64.571-166.857 64.571-142.857 0-259.429-118.286-259.429-264.571s116.571-264.571 259.429-264.571c165.714 0 228 119.429 237.714 180.571h-237.714v144h395.429c4-21.143 6.857-42.286 6.857-69.714zM1316.571 486.667v-120h-119.429v-119.429h-120v119.429h-119.429v120h119.429v119.429h120v-119.429h119.429z" />
<glyph unicode="&#xe941;" glyph-name="youtube-play, youtube" d="M406.286 294.096l276.571 142.857-276.571 144.571v-287.429zM512 786.667c215.429 0 358.286-10.286 358.286-10.286 20-2.286 64-2.286 102.857-43.429 0 0 31.429-30.857 40.571-101.714 10.857-82.857 10.286-165.714 10.286-165.714v-77.714s0.571-82.857-10.286-165.714c-9.143-70.286-40.571-101.714-40.571-101.714-38.857-40.571-82.857-40.571-102.857-42.857 0 0-142.857-10.857-358.286-10.857v0c-266.286 2.286-348 10.286-348 10.286-22.857 4-74.286 2.857-113.143 43.429 0 0-31.429 31.429-40.571 101.714-10.857 82.857-10.286 165.714-10.286 165.714v77.714s-0.571 82.857 10.286 165.714c9.143 70.857 40.571 101.714 40.571 101.714 38.857 41.143 82.857 41.143 102.857 43.429 0 0 142.857 10.286 358.286 10.286v0z" />
<glyph unicode="&#xe942;" glyph-name="linkedin" horiz-adv-x="878" d="M199.429 581.524v-566.286h-188.571v566.286h188.571zM211.429 756.381c0.571-54.286-40.571-97.714-106.286-97.714v0h-1.143c-63.429 0-104 43.429-104 97.714 0 55.429 42.286 97.714 106.286 97.714 64.571 0 104.571-42.286 105.143-97.714zM877.714 339.81v-324.571h-188v302.857c0 76-27.429 128-95.429 128-52 0-82.857-34.857-96.571-68.571-4.571-12.571-6.286-29.143-6.286-46.286v-316h-188c2.286 513.143 0 566.286 0 566.286h188v-82.286h-1.143c24.571 38.857 69.143 95.429 170.857 95.429 124 0 216.571-81.143 216.571-254.857z" />
<glyph unicode="&#xe943;" glyph-name="twitter" horiz-adv-x="951" d="M925.714 705.524c-25.143-36.571-56.571-69.143-92.571-95.429 0.571-8 0.571-16 0.571-24 0-244-185.714-525.143-525.143-525.143-104.571 0-201.714 30.286-283.429 82.857 14.857-1.714 29.143-2.286 44.571-2.286 86.286 0 165.714 29.143 229.143 78.857-81.143 1.714-149.143 54.857-172.571 128 11.429-1.714 22.857-2.857 34.857-2.857 16.571 0 33.143 2.286 48.571 6.286-84.571 17.143-148 91.429-148 181.143v2.286c24.571-13.714 53.143-22.286 83.429-23.429-49.714 33.143-82.286 89.714-82.286 153.714 0 34.286 9.143 65.714 25.143 93.143 90.857-112 227.429-185.143 380.571-193.143-2.857 13.714-4.571 28-4.571 42.286 0 101.714 82.286 184.571 184.571 184.571 53.143 0 101.143-22.286 134.857-58.286 41.714 8 81.714 23.429 117.143 44.571-13.714-42.857-42.857-78.857-81.143-101.714 37.143 4 73.143 14.286 106.286 28.571z" />
<glyph unicode="&#xe944;" glyph-name="facebook-official, facebook" horiz-adv-x="878" d="M829.143 865.524c26.857 0 48.571-21.714 48.571-48.571v-780.571c0-26.857-21.714-48.571-48.571-48.571h-223.429v340h113.714l17.143 132.571h-130.857v84.571c0 38.286 10.286 64 65.714 64l69.714 0.571v118.286c-12 1.714-53.714 5.143-101.714 5.143-101.143 0-170.857-61.714-170.857-174.857v-97.714h-114.286v-132.571h114.286v-340h-420c-26.857 0-48.571 21.714-48.571 48.571v780.571c0 26.857 21.714 48.571 48.571 48.571h780.571z" />
<glyph unicode="&#xe945;" glyph-name="location-marker-round" horiz-adv-x="849" d="M424.113-85.333l300.169 300.169c76.719 76.744 124.169 182.752 124.169 299.842 0 234.231-189.882 424.113-424.113 424.113s-424.113-189.882-424.113-424.113c0-117.090 47.45-223.098 124.17-299.843l-0.001 0.001zM292.958 646.16c33.686 33.694 80.228 54.535 131.637 54.535 102.803 0 186.141-83.338 186.141-186.141s-83.338-186.141-186.141-186.141c-51.409 0-97.951 20.841-131.637 54.535v0c-33.675 33.683-54.504 80.212-54.504 131.606s20.828 97.922 54.504 131.606v0z" />
<glyph unicode="&#xe946;" glyph-name="chevron-right-circle" d="M1024 426.667c0 281.6-230.4 512-512 512s-512-230.4-512-512 230.4-512 512-512 512 230.4 512 512zM371.2 140.8c-8.533 8.533-12.8 21.333-12.8 29.867s4.267 21.333 12.8 29.867l226.133 226.133-226.133 226.133c-17.067 17.067-17.067 42.667 0 59.733s42.667 17.067 59.733 0l256-256c17.067-17.067 17.067-42.667 0-59.733l-256-256c-17.067-17.067-46.933-17.067-59.733 0z" />
<glyph unicode="&#xe947;" glyph-name="chevron-right" d="M670.123 456.79l-256 256c-16.512 16.512-43.733 16.512-60.288 0s-16.512-43.733 0-60.288l225.877-225.877-225.877-225.877c-16.512-16.512-16.512-43.733 0-60.288 8.277-8.277 19.2-12.544 30.123-12.544s21.888 4.267 30.123 12.544l256 256c16.811 16.512 16.811 43.733 0 60.288z" />
<glyph unicode="&#xe948;" glyph-name="chevron-up-circle" d="M512 938.667c-281.6 0-512-230.4-512-512s230.4-512 512-512 512 230.4 512 512-230.4 512-512 512zM797.867 285.867c-8.533-8.533-21.333-12.8-29.867-12.8s-21.333 4.267-29.867 12.8l-226.133 226.133-226.133-226.133c-17.067-17.067-42.667-17.067-59.733 0s-17.067 42.667 0 59.733l256 256c17.067 17.067 42.667 17.067 59.733 0l256-256c17.067-17.067 17.067-46.933 0-59.733z" />
<glyph unicode="&#xe949;" glyph-name="chevron-up" d="M798.123 328.79l-256 256c-16.512 16.512-43.733 16.512-60.288 0l-256-256c-16.512-16.512-16.512-43.733 0-60.288s43.733-16.512 60.288 0l225.877 225.877 225.877-225.877c8.277-8.277 19.2-12.544 30.123-12.544s21.888 4.267 30.123 12.544c16.811 16.512 16.811 43.733 0 60.288z" />
<glyph unicode="&#xe94a;" glyph-name="ingredients-coconut" d="M512 938.667c-281.6 0-512-230.4-512-512s230.4-512 512-512c281.6 0 512 230.4 512 512s-230.4 512-512 512zM512 14.507c-227.84 0-412.16 184.32-412.16 412.16s184.32 412.16 412.16 412.16 412.16-184.32 412.16-412.16c0-227.84-184.32-412.16-412.16-412.16zM584.159 565.411c46.987-46.987 38.073-132.084-19.912-190.068s-143.081-66.899-190.068-19.912c-46.987 46.987-38.073 132.084 19.912 190.068s143.081 66.899 190.068 19.912zM719.36 593.067c-25.6 33.28-58.88 66.56-94.72 84.48-89.6 46.080-212.48 25.6-302.080-61.44-87.040-87.040-107.52-207.36-61.44-296.96 17.92-35.84 46.080-69.12 76.8-94.72 122.88-104.96 261.12-99.84 371.2 2.56 102.4 99.84 99.84 256 10.24 366.080zM624.64 211.627l-81.92 71.68c-74.24-35.84-158.72-30.72-212.48 23.040-69.12 69.12-58.88 194.56 23.040 279.040 84.48 84.48 207.36 94.72 279.040 23.040 69.12-69.12 58.88-194.56-23.040-279.040-2.56-2.56-5.12-5.12-5.12-5.12l20.48-112.64z" />
<glyph unicode="&#xe94b;" glyph-name="ingredients-dairy-free" d="M512 938.667c-281.6 0-512-230.4-512-512s230.4-512 512-512c281.6 0 512 230.4 512 512s-230.4 512-512 512zM512 14.507c-94.72 0-179.2 30.72-248.32 84.48l61.44 61.44c-38.4 10.24-40.96 10.24-43.52 12.8-33.28 15.36-38.4 43.52-38.4 64l-58.88-58.88c-53.76 69.12-84.48 153.6-84.48 248.32 0 227.84 184.32 412.16 412.16 412.16 94.72 0 179.2-30.72 248.32-84.48l-79.36-79.36v-33.28c0 0 0-2.56 0-2.56l53.76-69.12 104.96 104.96c53.76-69.12 84.48-156.16 84.48-248.32 0-227.84-184.32-412.16-412.16-412.16zM496.64 157.867v0 0zM486.4 459.947v0l-92.16 122.88c-23.040-23.040-89.6-87.040-92.16-89.6-5.12-5.12-10.24-12.8-10.24-30.72 0-15.36 0-204.8 0-222.72s2.56-20.48 10.24-23.040c5.12-2.56 156.16-48.64 192-58.88 0 10.24 0 263.68 0 281.6 0 0 0 0 0 0 0 7.68-5.12 17.92-7.68 20.48zM407.040 598.187c0 0 0 0 0 0l220.16 35.84c2.56 0 5.12 2.56 5.12 7.68v46.080c0 2.56 0 5.12-2.56 5.12-2.56 2.56-5.12 2.56-5.12 2.56l-220.16-35.84c-2.56 0-5.12-2.56-5.12-7.68v-46.080c0-2.56 0-5.12 2.56-5.12 0 0 2.56-2.56 5.12-2.56zM732.16 470.187l-128-20.48c0 0-2.56 0-2.56 0-7.68 0-15.36 5.12-15.36 12.8-2.56 10.24 5.12 17.92 12.8 17.92l125.44 20.48c-2.56 2.56-2.56 5.12-5.12 7.68l-84.48 112.64-220.16-35.84 84.48-112.64c0 0 12.8-15.36 12.8-35.84 0-17.92 0-281.6 0-281.6l194.56 30.72c10.24 2.56 25.6 5.12 25.6 23.040 0 15.36 0 84.48 0 84.48 0 66.56 0 130.56 0 166.4 0 2.56 0 7.68 0 10.24z" />
<glyph unicode="&#xe94c;" glyph-name="ingredients-eggs" d="M512 938.667c-281.6 0-512-230.4-512-512s230.4-512 512-512c281.6 0 512 230.4 512 512s-230.4 512-512 512zM512 14.507c-227.84 0-412.16 184.32-412.16 412.16s184.32 412.16 412.16 412.16 412.16-184.32 412.16-412.16c0-227.84-184.32-412.16-412.16-412.16zM512 710.827c-115.2 0-209.92-181.76-209.92-348.16 0-115.2 94.72-220.16 209.92-220.16s209.92 104.96 209.92 220.16c0 166.4-94.72 348.16-209.92 348.16zM514.56 214.187c-2.56-12.8-12.8-20.48-25.6-20.48-2.56 0-2.56 0-5.12 0-76.8 15.36-135.68 89.6-135.68 171.52 0 5.12 0 10.24 0 15.36 0 15.36 12.8 25.6 28.16 25.6s25.6-12.8 25.6-28.16c0-5.12 0-7.68 0-12.8 0-56.32 40.96-110.080 92.16-120.32 15.36-2.56 23.040-17.92 20.48-30.72z" />
<glyph unicode="&#xe94d;" glyph-name="close" d="M810 664.667l-238-238 238-238-60-60-238 238-238-238-60 60 238 238-238 238 60 60 238-238 238 238z" />
<glyph unicode="&#xe94e;" glyph-name="ingredients-fish" d="M512 938.667c-281.6 0-512-230.4-512-512s230.4-512 512-512c281.6 0 512 230.4 512 512s-230.4 512-512 512zM512 14.507c-227.84 0-412.16 184.32-412.16 412.16s184.32 412.16 412.16 412.16 412.16-184.32 412.16-412.16c0-227.84-184.32-412.16-412.16-412.16zM785.92 426.667c0 0 92.16 133.12 30.72 115.2-40.96-10.24-99.84-56.32-99.84-56.32s-40.96 30.72-128 56.32c10.24 7.68 23.040 12.8 30.72 20.48 17.92 12.8 17.92 33.28-107.52 40.96-64 5.12-107.52-17.92-135.68-38.4-102.4-15.36-163.84-74.24-192-110.080-10.24-15.36-12.8-28.16-12.8-28.16s2.56-12.8 12.8-28.16c30.72-38.4 99.84-102.4 217.6-112.64 10.24-5.12 20.48-12.8 35.84-20.48 64-33.28 115.2-12.8 135.68-2.56 17.92 10.24 0 12.8 0 12.8l-43.52 17.92c125.44 25.6 186.88 71.68 186.88 71.68s58.88-46.080 99.84-56.32c61.44-15.36-30.72 117.76-30.72 117.76zM289.28 403.627c-17.92 0-33.28 15.36-33.28 33.28s15.36 33.28 33.28 33.28c17.92 0 33.28-15.36 33.28-33.28s-12.8-33.28-33.28-33.28z" />
<glyph unicode="&#xe94f;" glyph-name="ingredients-gluten-free" d="M512 938.667c-281.6 0-512-230.4-512-512s230.4-512 512-512c281.6 0 512 230.4 512 512s-230.4 512-512 512zM512 14.507c-94.72 0-179.2 30.72-248.32 84.48l66.56 66.56c-7.68 5.12-15.36 12.8-23.040 17.92-20.48 20.48-35.84 40.96-48.64 66.56l-74.24-74.24c-53.76 71.68-84.48 156.16-84.48 250.88 0 227.84 184.32 412.16 412.16 412.16 94.72 0 179.2-30.72 248.32-84.48l-130.56-130.56c0-2.56 0-2.56 0-5.12 0-12.8 0-28.16-2.56-40.96 30.72 12.8 64 20.48 99.84 20.48h35.84l79.36 79.36c53.76-69.12 84.48-156.16 84.48-248.32-2.56-230.4-186.88-414.72-414.72-414.72zM532.48 180.907c0 48.64 20.48 94.72 56.32 128s84.48 53.76 135.68 53.76h10.24v-10.24c0-48.64-20.48-94.72-56.32-128s-84.48-53.76-135.68-53.76h-10.24v10.24zM481.28 170.667c-51.2 0-99.84 17.92-135.68 53.76s-56.32 79.36-56.32 128v10.24h10.24c51.2 0 99.84-17.92 135.68-53.76 35.84-33.28 56.32-79.36 56.32-128v-10.24h-10.24zM532.48 362.667c0 48.64 20.48 94.72 56.32 128s84.48 53.76 135.68 53.76h10.24v-10.24c0-48.64-20.48-94.72-56.32-128s-84.48-53.76-135.68-53.76h-10.24v10.24zM481.28 352.427c-51.2 0-99.84 17.92-135.68 53.76s-56.32 79.36-56.32 128v10.24h10.24c51.2 0 99.84-17.92 135.68-53.76 35.84-33.28 56.32-79.36 56.32-128v-10.24h-10.24zM504.32 488.107c-35.84 35.84-56.32 81.92-56.32 130.56s20.48 94.72 56.32 130.56l7.68 7.68 7.68-7.68c35.84-35.84 56.32-81.92 56.32-130.56s-20.48-94.72-56.32-130.56l-7.68-7.68-7.68 7.68z" />
<glyph unicode="&#xe950;" glyph-name="ingredients-halal" d="M512 938.667c-281.6 0-512-230.4-512-512s230.4-512 512-512c281.6 0 512 230.4 512 512s-230.4 512-512 512zM512 14.507c-227.84 0-412.16 184.32-412.16 412.16s184.32 412.16 412.16 412.16 412.16-184.32 412.16-412.16c0-227.84-184.32-412.16-412.16-412.16zM890.88 357.547c-7.68-15.36-12.8-35.84-28.16-43.52-7.68-5.12-17.92-2.56-28.16 0-10.24 0-17.92 0-28.16 0-20.48-5.12-40.96-12.8-58.88-20.48-35.84-12.8-76.8-33.28-117.76-20.48-10.24 2.56-20.48 10.24-25.6 15.36-12.8 12.8-15.36 33.28-15.36 51.2 0 20.48 2.56 40.96 5.12 61.44 2.56 17.92 5.12 38.4 5.12 56.32 0 5.12 0 7.68 0 12.8-2.56-12.8-5.12-28.16-10.24-40.96-12.8-40.96-28.16-79.36-53.76-112.64-20.48-28.16-46.080-48.64-79.36-61.44-7.68-2.56-17.92-5.12-25.6-7.68-23.040-5.12-43.52-5.12-66.56-5.12-5.12 0-7.68 0-12.8 2.56 0 0 0 0-2.56 0 2.56 0 2.56 2.56 5.12 2.56 10.24 2.56 23.040 5.12 33.28 10.24 33.28 7.68 64 25.6 89.6 46.080 33.28 28.16 61.44 66.56 76.8 107.52 5.12 12.8 7.68 23.040 12.8 35.84 10.24 35.84 12.8 71.68 17.92 107.52 0 7.68 0 15.36 2.56 20.48 0 0 0 0 0 2.56 0 0 2.56 0 2.56 0 7.68-2.56 12.8-10.24 17.92-15.36 5.12-10.24 7.68-17.92 10.24-28.16 2.56-17.92 5.12-33.28 5.12-51.2s0-35.84-2.56-53.76c0-28.16-7.68-61.44 5.12-87.040 2.56-7.68 7.68-12.8 15.36-15.36 25.6-15.36 66.56-2.56 94.72 2.56 20.48 5.12 38.4 10.24 58.88 15.36-33.28 23.040-76.8 40.96-115.2 17.92-10.24-5.12-17.92-15.36-25.6-23.040 2.56 2.56 5.12 10.24 7.68 15.36s5.12 10.24 10.24 15.36 15.36 17.92 25.6 23.040c23.040 12.8 48.64 10.24 71.68 5.12 15.36-5.12 28.16-12.8 43.52-17.92 12.8-5.12 25.6-10.24 38.4-12.8 7.68 0 15.36-2.56 20.48-2.56 0-7.68 17.92-10.24 20.48-7.68 0 0 0 0 0 0zM371.2 641.707c5.12-2.56 2.56-15.36 2.56-20.48-2.56-10.24 0-20.48 5.12-28.16s10.24-15.36 2.56-23.040c-7.68-7.68-17.92-15.36-17.92-28.16 0-10.24 0-17.92 0-28.16 2.56-17.92 2.56-33.28 5.12-51.2 2.56-15.36 5.12-30.72 5.12-43.52 2.56-20.48 5.12-40.96 2.56-61.44 0-23.040-7.68-43.52-17.92-61.44-12.8-20.48-30.72-33.28-53.76-40.96-17.92-5.12-35.84-7.68-53.76-7.68s-35.84 5.12-51.2 17.92c-20.48 17.92-33.28 40.96-33.28 69.12 0 12.8 5.12 25.6 10.24 35.84 2.56 5.12 5.12 7.68 7.68 10.24s2.56 2.56 5.12 5.12c0-2.56 0-2.56-2.56-5.12-2.56-7.68-5.12-17.92-7.68-25.6-5.12-28.16 10.24-48.64 30.72-58.88 10.24-5.12 17.92-7.68 28.16-7.68 20.48-2.56 43.52 0 64 5.12 15.36 5.12 33.28 12.8 43.52 25.6 12.8 15.36 10.24 35.84 7.68 53.76-5.12 33.28-12.8 66.56-25.6 97.28-7.68 20.48-12.8 40.96-20.48 64-2.56 7.68-5.12 17.92-5.12 28.16-2.56 15.36 2.56 28.16 12.8 40.96 7.68 10.24 17.92 20.48 28.16 28.16 10.24 0 23.040 12.8 28.16 10.24 0 0 0 0 0 0zM399.36 531.627c35.84-7.68 69.12-30.72 87.040-64 5.12-7.68 10.24-17.92 12.8-28.16 7.68-25.6 12.8-61.44-7.68-84.48 2.56 2.56 0 12.8 0 15.36 0 5.12 0 10.24 0 17.92 0 10.24-2.56 23.040-10.24 30.72-12.8 20.48-35.84 17.92-53.76 30.72-17.92 10.24-30.72 30.72-33.28 51.2 0 12.8 0 20.48 5.12 30.72z" />
<glyph unicode="&#xe951;" glyph-name="ingredients-kosher" d="M512 938.667c-281.6 0-512-230.4-512-512s230.4-512 512-512c281.6 0 512 230.4 512 512s-230.4 512-512 512zM512 14.507c-227.84 0-412.16 184.32-412.16 412.16s184.32 412.16 412.16 412.16 412.16-184.32 412.16-412.16c0-227.84-184.32-412.16-412.16-412.16zM212.48 477.867h74.24c28.16 0 30.72-28.16 30.72-43.52s0-161.28 0-161.28l38.4 30.72c0 0 0 128 0 161.28 0 48.64-30.72 69.12-61.44 69.12h-79.36c-7.68 0-20.48 2.56-20.48 25.6-15.36-5.12-25.6-17.92-25.6-43.52 0-23.040 20.48-38.4 43.52-38.4zM407.040 477.867c0 0-12.8-40.96-12.8-79.36 0-61.44 12.8-94.72 30.72-125.44h112.64c0 0 48.64 40.96 74.24 112.64s25.6 92.16 25.6 115.2c0 23.040-15.36 35.84-28.16 35.84-20.48 0-25.6 12.8-25.6 23.040-17.92-7.68-23.040-28.16-23.040-35.84 0-20.48 7.68-40.96 33.28-46.080 2.56-5.12 5.12-12.8 5.12-25.6 0-28.16-10.24-87.040-58.88-110.080-17.92-7.68-51.2-7.68-51.2-7.68l38.4 143.36c0 0 20.48 5.12 20.48 23.040 0 15.36 0 0 0 15.36s-20.48 20.48-30.72 20.48c-20.48 0-25.6 12.8-25.6 23.040-25.6-7.68-30.72-30.72-30.72-35.84 0-23.040 7.68-40.96 38.4-46.080l-40.96-145.92c0 0-38.4 5.12-38.4 66.56 0 48.64 10.24 69.12 17.92 76.8 15.36 15.36 12.8 17.92 12.8 28.16v7.68c0 12.8-5.12 23.040-30.72 25.6-20.48 0-25.6 10.24-25.6 23.040-17.92-7.68-23.040-28.16-23.040-35.84 0-23.040 7.68-40.96 35.84-46.080zM775.68 329.387c-33.28 0-104.96 0-104.96 0l-20.48-56.32c0 0 110.080 0 130.56 0s48.64 10.24 61.44 35.84c10.24 20.48 12.8 38.4 12.8 71.68v43.52c0 40.96-2.56 66.56-25.6 87.040-23.040 23.040-48.64 23.040-58.88 23.040h-61.44c-20.48 0-25.6 10.24-25.6 23.040-17.92-7.68-23.040-28.16-23.040-35.84 0-23.040 10.24-46.080 46.080-46.080h69.12c20.48 0 56.32-15.36 56.32-53.76v-43.52c-2.56-23.040-23.040-48.64-56.32-48.64z" />
<glyph unicode="&#xe952;" glyph-name="ingredients-low-fat" d="M512 577.707c56.32-92.16 102.4-189.44 102.4-232.96 0-56.32-46.080-102.4-102.4-102.4s-102.4 46.080-102.4 102.4c0 43.52 46.080 138.24 102.4 232.96zM512 741.547c0 0-192-266.24-192-394.24 0-104.96 87.040-192 192-192s192 87.040 192 192c0 125.44-192 394.24-192 394.24v0zM512 938.667c-281.6 0-512-230.4-512-512s230.4-512 512-512c281.6 0 512 230.4 512 512s-230.4 512-512 512zM512 14.507c-227.84 0-412.16 184.32-412.16 412.16s184.32 412.16 412.16 412.16 412.16-184.32 412.16-412.16c0-227.84-184.32-412.16-412.16-412.16z" />
<glyph unicode="&#xe953;" glyph-name="ingredients-non-fat" d="M512 938.667c-281.6 0-512-230.4-512-512s230.4-512 512-512c281.6 0 512 230.4 512 512s-230.4 512-512 512zM512 14.507c-94.72 0-179.2 30.72-248.32 84.48l81.92 81.92c-28.16 25.6-51.2 58.88-64 94.72l-97.28-97.28c-53.76 69.12-84.48 153.6-84.48 248.32 0 225.28 181.76 407.040 404.48 412.16v0c2.56 0 5.12 0 7.68 0 94.72 0 179.2-30.72 248.32-84.48l-112.64-112.64c17.92-33.28 38.4-66.56 53.76-102.4l135.68 135.68c53.76-69.12 84.48-156.16 84.48-248.32 2.56-227.84-181.76-412.16-409.6-412.16zM512 756.907c0 0-192-266.24-192-394.24 0-104.96 87.040-192 192-192s192 87.040 192 192c0 128-192 394.24-192 394.24zM517.12 242.347c-2.56-12.8-12.8-23.040-25.6-23.040-2.56 0-2.56 0-5.12 0-69.12 12.8-117.76 71.68-117.76 140.8 0 10.24 2.56 23.040 5.12 38.4s17.92 23.040 33.28 20.48c15.36-2.56 23.040-17.92 20.48-33.28-2.56-10.24-5.12-17.92-5.12-25.6 0-43.52 30.72-81.92 74.24-89.6 12.8 0 23.040-12.8 20.48-28.16z" />
<glyph unicode="&#xe954;" glyph-name="ingredients-peanuts" d="M512 938.667c-281.6 0-512-230.4-512-512s230.4-512 512-512c281.6 0 512 230.4 512 512s-230.4 512-512 512zM512 14.507c-227.84 0-412.16 184.32-412.16 412.16s184.32 412.16 412.16 412.16 412.16-184.32 412.16-412.16c0-227.84-184.32-412.16-412.16-412.16zM634.88 342.187c33.28 35.84 43.52 25.6 81.92 64 61.44 61.44 61.44 163.84 0 227.84-61.44 61.44-166.4 61.44-227.84 0-38.4-38.4-28.16-48.64-64-81.92-46.080-40.96-79.36-30.72-125.44-76.8-71.68-71.68-71.68-186.88 0-256 71.68-71.68 186.88-71.68 256 0 48.64 43.52 38.4 79.36 79.36 122.88zM332.8 401.067c-10.24 10.24-10.24 25.6 0 38.4l2.56 2.56c5.12 5.12 10.24 10.24 15.36 12.8 12.8 7.68 28.16 5.12 38.4-5.12 7.68-12.8 5.12-28.16-5.12-38.4-2.56-2.56-5.12-5.12-10.24-7.68l-5.12-2.56c-7.68-10.24-25.6-10.24-35.84 0 0 0 0 0 0 0zM332.8 252.587c-20.48 20.48-33.28 46.080-38.4 74.24-2.56 15.36 7.68 28.16 23.040 30.72s28.16-7.68 30.72-23.040c2.56-17.92 10.24-30.72 23.040-43.52 10.24-10.24 10.24-28.16 0-38.4s-28.16-10.24-38.4 0zM688.64 495.787c-7.68 0-15.36 2.56-20.48 7.68s-7.68 10.24-7.68 17.92c0 2.56 0 7.68 0 10.24-2.56 15.36 7.68 28.16 20.48 30.72 15.36 2.56 28.16-7.68 30.72-20.48 2.56-7.68 2.56-12.8 2.56-20.48 0-12.8-10.24-25.6-25.6-25.6z" />
</font>
</defs>
</svg>
